<?xml version="1.0" standalone="no"?>
<!DOCTYPE svg PUBLIC "-//W3C//DTD SVG 1.1//EN" "http://www.w3.org/Graphics/SVG/1.1/DTD/svg11.dtd" >
<svg xmlns="http://www.w3.org/2000/svg" xmlns:xlink="http://www.w3.org/1999/xlink" version="1.1">
<metadata>
Created by FontForge 20201107 at Mon Jan  3 15:59:50 2022
 By 
(c) 2021 Microsoft Corporation. All Rights Reserved.
Hebrew OpenType Layout logic copyright (c) 2003 &#38; 2007, Ralph Hancock &#38; John Hudson. This layout logic for Biblical Hebrew is open source software under the MIT License; see embedded license description for details.
</metadata>
<defs>
<font id="Calibri" horiz-adv-x="0" >
  <font-face 
    font-family="Calibri"
    font-weight="400"
    font-stretch="normal"
    units-per-em="2048"
    panose-1="2 15 5 2 2 2 4 3 2 4"
    ascent="1536"
    descent="-512"
    x-height="951"
    cap-height="1294"
    bbox="-1027.47 -640 2540 2102"
    underline-thickness="134"
    underline-position="-299"
    unicode-range="U+000D-1DF04"
  />
<missing-glyph horiz-adv-x="1038" 
d="M978 1294v-1294h-934v1294h934zM891 81v1132h-762v-1132h762zM767 855q0 -59 -17.5 -105t-49 -77.5t-74.5 -49.5t-94 -21l-5 -152q0 -10 -15 -14t-41 -4q-15 0 -25 1t-16.5 3t-9.5 5t-3 9l-5 184q-2 30 12 42t38 12h18q45 0 75 12.5t48.5 33.5t26.5 50.5t8 62.5
q0 73 -41.5 116t-132.5 43q-37 0 -67 -7.5t-53 -17t-37.5 -17.5t-21.5 -8q-3 0 -6.5 2t-6.5 7.5t-4.5 15t-1.5 25.5q0 17 2.5 28t10.5 19q7 7 27 16t47.5 17.5t60.5 14.5t67 6q75 0 129 -20t88.5 -54t51.5 -80t17 -98zM549 273q0 -21 -3.5 -35t-12 -23t-23 -13t-35.5 -4
q-22 0 -36.5 4t-23.5 13t-13 23t-4 35t4 35.5t13 23.5t23.5 13t36.5 4q21 0 35.5 -4t23 -13t12 -23.5t3.5 -35.5zM0 -397z" />
    <glyph glyph-name="uniFB00" unicode="ff" horiz-adv-x="1195" 
d="M1216 1296q0 -32 -5 -46t-18 -14q-8 0 -18.5 4t-26 9.5t-35.5 10t-46 4.5q-74 0 -104.5 -51t-30.5 -163v-99h201q8 0 14 -3.5t10.5 -12t6.5 -21.5t2 -32q0 -36 -8.5 -52t-24.5 -16h-201v-789q0 -8 -4 -13.5t-13.5 -9.5t-25.5 -6t-40 -2t-40 2t-25.5 6t-13.5 9.5t-4 13.5
v789h-404v-789q0 -8 -4 -13.5t-13.5 -9.5t-25.5 -6t-40 -2t-40 2t-25.5 6t-13.5 9.5t-4 13.5v789h-127q-16 0 -24 16t-8 52q0 19 2 32t6 21.5t10 12t14 3.5h127v85q0 93 18 159.5t54 109.5t89.5 63.5t124.5 20.5q44 0 77 -7.5t54 -16.5q10 -4 16 -10t10 -15.5t5.5 -23
t1.5 -32.5q0 -32 -5 -46.5t-18 -14.5q-8 0 -18.5 4.5t-26.5 10t-36 10t-46 4.5q-74 0 -104 -51t-30 -163v-87h404v97q0 93 18.5 159.5t54.5 109.5t89.5 63.5t124.5 20.5q43 0 76.5 -7.5t54.5 -16.5q9 -4 15.5 -10t10 -15.5t5 -23t1.5 -32.5z" />
    <glyph glyph-name="uniFB01" unicode="fi" horiz-adv-x="1084" 
d="M950 1228q0 -28 -4.5 -47t-15.5 -30.5t-30.5 -16.5t-49.5 -5q-29 0 -48.5 5t-31 16.5t-16.5 30.5t-5 47t5 46.5t16.5 31t31 17t48.5 4.5q30 0 49.5 -4.5t30.5 -17t15.5 -31t4.5 -46.5zM932 25q0 -8 -4 -13.5t-13.5 -9.5t-25.5 -6t-40 -2t-40 2t-25.5 6t-13.5 9.5t-4 13.5
v789h-404v-789q0 -8 -4 -13.5t-13.5 -9.5t-25.5 -6t-40 -2t-40 2t-25.5 6t-13.5 9.5t-4 13.5v789h-127q-16 0 -24 16t-8 52q0 19 2 32t6 21.5t10 12t14 3.5h127v97q0 93 18 159.5t53.5 109.5t88 63.5t120.5 20.5q22 0 44 -2t40 -6t31.5 -8.5t18.5 -9.5t8 -10.5t5 -13.5
t3 -20t1 -29q0 -32 -5 -46t-17 -14q-8 0 -16.5 3.5t-21.5 7.5t-31.5 7.5t-46.5 3.5q-69 0 -98 -51t-29 -163v-99h519q26 0 38.5 -13.5t12.5 -37.5v-875z" />
    <glyph glyph-name="uniFB02" unicode="fl" horiz-adv-x="1084" 
d="M932 25q0 -8 -4 -13.5t-13.5 -9.5t-25.5 -6t-40 -2t-40 2t-25.5 6t-13.5 9.5t-4 13.5v1221q-2 -3 -6 -4.5t-11 -1.5q-11 0 -35 5.5t-50.5 9.5t-50.5 6t-46 2q-62 0 -102 -12.5t-63 -38.5t-31.5 -67t-8.5 -96v-98h185q8 0 14 -3.5t10.5 -12t6.5 -21.5t2 -32
q0 -36 -8.5 -52t-24.5 -16h-185v-789q0 -8 -4 -13.5t-13.5 -9.5t-25.5 -6t-40 -2t-40 2t-25.5 6t-13.5 9.5t-4 13.5v789h-127q-16 0 -24 16t-8 52q0 19 2 32t6 21.5t10 12t14 3.5h127v96q0 93 21 160t64.5 109.5t110.5 63t160 20.5q26 0 54 -2t54.5 -5.5t46 -7t31 -7
t18.5 -8.5t10 -13q1 10 4.5 16t12 11t24.5 7t42 2q24 0 40 -2t25.5 -6t13.5 -10t4 -14v-1336z" />
    <glyph glyph-name="uniFB03" unicode="ffi" horiz-adv-x="1654" 
d="M1521 1228q0 -28 -4.5 -47t-16 -30.5t-31 -16.5t-49.5 -5q-29 0 -48.5 5t-31 16.5t-16.5 30.5t-5 47t5 46.5t16.5 31t31 17t48.5 4.5q30 0 49.5 -4.5t31 -17t16 -31t4.5 -46.5zM1503 25q0 -8 -4 -13.5t-13.5 -9.5t-25.5 -6t-41 -2q-23 0 -39.5 2t-26 6t-13 9.5t-3.5 13.5
v789h-405v-789q0 -8 -4 -13.5t-13.5 -9.5t-25.5 -6t-40 -2t-40 2t-25.5 6t-13.5 9.5t-4 13.5v789h-404v-789q0 -8 -4 -13.5t-13.5 -9.5t-25.5 -6t-40 -2t-40 2t-25.5 6t-13.5 9.5t-4 13.5v789h-127q-16 0 -24 16t-8 52q0 19 2 32t6 21.5t10 12t14 3.5h127v85q0 93 18 159.5
t54 109.5t89.5 63.5t124.5 20.5q44 0 77 -7.5t48.5 -14t21.5 -12.5t10 -15.5t5.5 -23t1.5 -32.5q0 -32 -5 -46.5t-18 -14.5q-8 0 -18.5 4.5t-26.5 10t-36.5 10t-45.5 4.5q-74 0 -104 -51t-30 -163v-87h404v97q0 93 18.5 159.5t53.5 109.5t87.5 63.5t120.5 20.5q22 0 44.5 -2
t40 -6t31 -8.5t18.5 -9.5t8 -10.5t5.5 -13.5t3.5 -20t1 -29q0 -32 -5 -46t-18 -14q-7 0 -16 3.5t-21.5 7.5t-31.5 7.5t-46 3.5q-69 0 -98.5 -51t-29.5 -163v-99h519q26 0 39 -13.5t13 -37.5v-875z" />
    <glyph glyph-name="uniFB04" unicode="ffl" horiz-adv-x="1654" 
d="M1503 25q0 -8 -4 -13.5t-13.5 -9.5t-25.5 -6t-41 -2q-23 0 -39.5 2t-26 6t-13 9.5t-3.5 13.5v1222q-3 -3 -7 -4.5t-11 -1.5q-12 0 -35.5 5.5t-50 9.5t-50.5 6t-45 2q-62 0 -102 -12.5t-63 -39t-32 -67t-9 -95.5v-99h186q8 0 13.5 -3.5t10 -12t6.5 -21.5t2 -32
q0 -36 -8.5 -52t-23.5 -16h-186v-789q0 -8 -4 -13.5t-13.5 -9.5t-25.5 -6t-40 -2t-40 2t-25.5 6t-13.5 9.5t-4 13.5v789h-404v-789q0 -8 -4 -13.5t-13.5 -9.5t-25.5 -6t-40 -2t-40 2t-25.5 6t-13.5 9.5t-4 13.5v789h-127q-16 0 -24 16t-8 52q0 19 2 32t6 21.5t10 12t14 3.5
h127v85q0 93 18 159.5t54 109.5t89.5 63.5t124.5 20.5q44 0 77 -7.5t48.5 -14t21.5 -12.5t10 -15.5t5.5 -23t1.5 -32.5q0 -32 -5 -46.5t-18 -14.5q-8 0 -18.5 4.5t-26.5 10t-36 10t-46 4.5q-74 0 -104 -51t-30 -163v-87h404v97q0 93 21 159.5t64.5 109.5t110.5 63.5
t160 20.5q26 0 54 -2t54.5 -5.5t46.5 -7t31 -7t18 -8.5t11 -14q0 10 3.5 16t12.5 11t25 7t41 2t41 -2t25.5 -6t13.5 -10t4 -14v-1336z" />
    <glyph glyph-name="uniFB13" unicode="&#x574;&#x576;" horiz-adv-x="2152" 
d="M1338 1387q29 0 40 -18t11 -43v-949q0 -51 9.5 -97t32 -81t59 -55.5t89.5 -20.5q63 0 124 44t130 129v629q0 16 17 23.5t66 7.5q48 0 65.5 -7.5t17.5 -23.5v-900q0 -15 -16 -23t-59 -8q-46 0 -60.5 8t-14.5 23v119q-78 -85 -152 -124t-152 -39q-72 0 -131.5 21.5
t-101.5 67.5t-65.5 119.5t-23.5 176.5v884h-300v-1225q0 -15 -16 -23t-59 -8q-46 0 -60.5 8t-14.5 23v119q-78 -85 -152 -124t-152 -39q-72 0 -131.5 21.5t-101.5 67.5t-65.5 119.5t-23.5 176.5v560q0 16 17 23.5t66 7.5q48 0 65.5 -7.5t17.5 -23.5v-549q0 -51 9.5 -97
t32 -81t59 -55.5t89.5 -20.5q63 0 124 44t130 129v1049q0 16 11 29t34 13h536z" />
    <glyph glyph-name="uniFB14" unicode="&#x574;&#x565;" horiz-adv-x="2152" 
d="M923 1250v-1225q0 -15 -16 -23t-59 -8q-46 0 -60.5 8t-14.5 23v119q-78 -85 -152 -124t-152 -39q-72 0 -131.5 21.5t-101.5 67.5t-65.5 119.5t-23.5 176.5v560q0 16 17 23.5t66 7.5q48 0 65.5 -7.5t17.5 -23.5v-549q0 -51 9.5 -97t32 -81t59 -55.5t89.5 -20.5
q63 0 124 44t130 129v1049q0 16 11 29t34 13h355q14 0 23.5 -15.5t9.5 -53.5q0 -36 -9 -52t-24 -16h-234zM2018 951q15 0 24 -16t9 -52q0 -38 -9.5 -53.5t-23.5 -15.5h-629v-437q0 -51 9.5 -97t32 -81t59 -55.5t89.5 -20.5q63 0 124 44t130 129v271q0 16 17 23.5t66 7.5
q48 0 65.5 -7.5t17.5 -23.5v-542q0 -15 -16 -23t-59 -8q-46 0 -60.5 8t-14.5 23v119q-78 -85 -152 -124t-152 -39q-72 0 -131.5 21.5t-101.5 67.5t-65.5 119.5t-23.5 176.5v996q0 16 17 23.5t66 7.5q48 0 65.5 -7.5t17.5 -23.5v-411h629z" />
    <glyph glyph-name="uniFB15" unicode="&#x574;&#x56b;" horiz-adv-x="2152" 
d="M923 1250v-1225q0 -15 -16 -23t-59 -8q-46 0 -60.5 8t-14.5 23v119q-78 -85 -152 -124t-152 -39q-72 0 -131.5 21.5t-101.5 67.5t-65.5 119.5t-23.5 176.5v560q0 16 17 23.5t66 7.5q48 0 65.5 -7.5t17.5 -23.5v-549q0 -51 9.5 -97t32 -81t59 -55.5t89.5 -20.5
q63 0 124 44t130 129v1049q0 16 11 29t34 13h352q14 0 23.5 -15.5t9.5 -53.5q0 -36 -9 -52t-24 -16h-231zM1229 1362q0 15 17 23t65 8t66 -8t18 -23v-539q74 77 144 112t144 35q72 0 131.5 -21.5t101.5 -67.5t65.5 -119t23.5 -177v-559q0 -16 -17 -23.5t-66 -7.5
q-48 0 -65.5 7.5t-17.5 23.5v548q0 51 -9.5 97t-32 81t-59 55.5t-89.5 20.5q-63 0 -124 -44t-130 -129v-988q0 -16 -17 -23.5t-66 -7.5q-48 0 -65.5 7.5t-17.5 23.5v1695z" />
    <glyph glyph-name="uniFB16" unicode="&#x57e;&#x576;" horiz-adv-x="2152" 
d="M799 -358q-17 0 -29.5 8.5t-12.5 34.5v443q-74 -77 -144 -112t-144 -35q-72 0 -131.5 21.5t-101.5 67.5t-65.5 119.5t-23.5 176.5v559q0 16 17 23.5t66 7.5q48 0 65.5 -7.5t17.5 -23.5v-548q0 -51 9.5 -97t32 -81t59 -55.5t89.5 -20.5q63 0 124 44t130 129v1066
q0 16 17 23.5t66 7.5q48 0 65.5 -7.5t17.5 -23.5v-1583h254q14 0 23.5 -15.5t9.5 -53.5q0 -36 -9 -52t-24 -16h-378zM1338 1387q29 0 40 -18t11 -43v-949q0 -51 9.5 -97t32 -81t59 -55.5t89.5 -20.5q63 0 124 44t130 129v629q0 16 17 23.5t66 7.5q48 0 65.5 -7.5t17.5 -23.5
v-900q0 -15 -16 -23t-59 -8q-46 0 -60.5 8t-14.5 23v119q-78 -85 -152 -124t-152 -39q-72 0 -131.5 21.5t-101.5 67.5t-65.5 119.5t-23.5 176.5v884h-229q-14 0 -23.5 15.5t-9.5 53.5q0 36 9 52t24 16h344z" />
    <glyph glyph-name="uniFB17" unicode="&#x574;&#x56d;" horiz-adv-x="2618" 
d="M903 1250v-1225q0 -15 -16 -23t-59 -8q-46 0 -60.5 8t-14.5 23v119q-77 -85 -147 -124t-147 -39q-72 0 -129.5 21.5t-98 67.5t-62.5 119.5t-22 176.5v560q0 16 17 23.5t66 7.5q48 0 65.5 -7.5t17.5 -23.5v-549q0 -51 8 -97t28.5 -81t55.5 -55.5t88 -20.5q63 0 119 44
t125 129v1049q0 16 11 29t34 13h342q14 0 23.5 -15.5t9.5 -53.5q0 -36 -9 -52t-24 -16h-221zM1355 655v-988q0 -16 -17 -23.5t-66 -7.5q-48 0 -65.5 7.5t-17.5 23.5v1695q0 15 17 23t65 8t65.5 -8t17.5 -23v-539q72 76 136 111.5t130 35.5q149 0 220.5 -90.5t71.5 -281.5
v-16l-4 -203v-11q0 -55 8.5 -100t27 -77t49 -49.5t75.5 -17.5q57 0 116.5 43t114.5 130v629q0 15 17 23t67 8q49 0 65.5 -8t16.5 -23v-900q0 -16 -15 -23.5t-60 -7.5t-60 7.5t-15 23.5v119q-71 -90 -140 -127t-142 -37q-55 0 -107.5 17t-93.5 57.5t-65.5 107.5t-24.5 166v12
l4 231v11q0 55 -8.5 100t-27.5 77t-49.5 49.5t-75.5 17.5q-43 0 -102.5 -43.5t-127.5 -128.5z" />
    <glyph glyph-name="uniFB4F" unicode="&#x5d0;&#x200d;&#x5dc;" horiz-adv-x="1000" 
d="M360 974l217 -432q56 47 89.5 92t47 97.5t13.5 120.5v179q0 17 19.5 24t64.5 7q46 0 65.5 -7t19.5 -24v-174q0 -77 -12 -132.5t-38.5 -106t-79 -107.5t-119.5 -110l170 -339q9 -17 12.5 -26t3.5 -15q0 -14 -19 -20.5t-67 -6.5q-29 0 -49.5 2t-32 8t-19.5 21l-424 848
q-11 23 -25.5 33t-43.5 10h-65q-27 0 -43.5 15.5t-16.5 44.5v386q0 17 19 24t65 7t65.5 -7t19.5 -24v-306h16q67 0 95 -18.5t52 -63.5z" />
    <glyph glyph-name="uniFDF2" unicode="&#xfe8d;&#xfedf;&#xfee0;&#xfeea;" horiz-adv-x="2212" arabic-form="isolated" 
d="M1743 461q0 -38 -8 -79t-20 -78.5t-26.5 -67t-27.5 -44.5q-20 -21 -53.5 -33t-68.5 -14q-43 -3 -89 5t-88.5 30t-79 60.5t-60.5 98.5h-6q-25 -108 -108.5 -165.5t-209.5 -57.5q-66 0 -118 16.5t-88.5 51.5t-56.5 89t-20 129h-6q-16 -21 -35.5 -43t-40.5 -40t-41.5 -29.5
t-38.5 -11.5q-37 0 -79.5 2.5t-84.5 8.5t-81 16.5t-69 26.5t-47 39t-15 54q1 21 14.5 51t33 61.5t41.5 59.5t40 45q14 15 48.5 37.5t86.5 51t119.5 61t147.5 67.5v26t2 26q5 37 51 95q17 22 30 35.5t21 13.5q12 0 12 -13q0 -66 -1 -125.5t0 -107.5q2 -80 3.5 -159t5.5 -160
q2 -56 19 -92.5t45 -58.5t65.5 -31t80.5 -9q46 0 89 10.5t77 31t55.5 50.5t23.5 70q0 19 -5.5 58.5t-14 88.5t-18.5 102.5t-18.5 101.5t-14 85.5t-5.5 53.5q0 23 12 53.5t31 68.5q14 26 26.5 43.5t22.5 17.5q13 0 16 -13q22 -157 44.5 -302.5t48.5 -293.5q10 -54 33 -92
t55 -62.5t70.5 -35.5t80.5 -11q23 0 47.5 5.5t37.5 21.5q0 21 -7.5 73.5t-19 120t-24.5 142.5t-24.5 141t-19 115.5t-7.5 65.5q0 21 11 52t26 59.5t30.5 49t24.5 20.5q13 0 15 -13q8 -65 19 -137.5t22 -144.5t22 -140.5t19.5 -126.5t14 -101.5t5.5 -65.5zM2076 187
q-3 -8 -8 -12t-22 -4t-22.5 4t-6.5 12q-1 21 0 54t0 68q-3 82 -10 174t-15 186.5t-17.5 187.5t-16.5 178.5t-12 159t-5 127.5q0 27 13.5 54.5t33.5 56.5q16 24 30.5 39.5t25.5 15.5q5 0 8.5 -2.5t4.5 -7.5q4 -71 10 -158t13 -179.5t14 -186.5t12.5 -179.5t9 -158.5t3.5 -123
q0 -56 -4 -104t-10.5 -87t-14 -68t-14.5 -47zM1124 1405q2 6 7.5 9t20.5 3q24 0 24 -10q0 -16 -3.5 -40t-8.5 -41q8 -5 20 -11t27 -6q20 0 35 14.5t25 36.5t16 48t9 49q1 10 8.5 13t21.5 3q21 0 21 -14q0 -38 -6.5 -81t-23.5 -80t-45.5 -61t-72.5 -24q-27 0 -44.5 11
t-26.5 20q-8 -13 -18.5 -27t-25 -26t-35 -19.5t-48.5 -7.5q-15 0 -28 4t-23.5 14.5t-16.5 29t-6 48.5q0 15 2.5 31.5t7 31.5t10.5 27.5t12 19.5q5 9 24 9q8 0 14 -2.5t6 -8.5q0 -5 -2.5 -12.5t-5 -16.5t-5 -17.5t-2.5 -15.5q0 -17 7.5 -29t30.5 -12t39 15t27.5 37t18.5 46
t13 42zM609 491q0 42 -0.5 91t-0.5 98q0 24 0.5 47.5t0.5 46.5h-3q-17 -20 -39.5 -38t-43.5 -29q-52 -27 -98.5 -53.5t-84.5 -51.5t-66.5 -46t-44.5 -37q17 -18 43 -31.5t56 -21.5t62 -11.5t62 -3.5q36 0 77 8.5t80 31.5zM1180 1479q-2 -7 -6 -8.5t-18 -1.5q-17 0 -17 10
q0 18 -0.5 40t-2 44.5t-5 45t-10.5 42.5q-13 33 -28.5 54.5t-37.5 43.5q-4 4 -4 19q0 9 2 27t5.5 35.5t8.5 30.5t10 13q9 0 17 -9q54 -54 77 -124.5t23 -146.5q0 -14 -1 -30t-3 -31.5t-4.5 -29.5t-5.5 -24z" />
    <glyph glyph-name="uniFEF7" unicode="&#xfedf;&#xfe84;" horiz-adv-x="1082" arabic-form="isolated" 
d="M849 1496q6 8 11 8q11 0 11 -9q1 -20 5.5 -36t15 -32.5t28 -36.5t46.5 -47q14 -12 18.5 -21t4.5 -20q0 -13 -6 -32t-15 -37t-20 -32.5t-21 -18.5q4 -57 10.5 -117t12.5 -118.5t10 -112.5t4 -99q0 -50 -7 -115t-31 -137t-69 -145t-120 -139q-71 -63 -155 -97.5t-190 -54.5
q-32 -6 -72.5 -12.5t-80 -12t-75 -8.5t-57.5 -3q-11 0 -15 12t-4 33q0 15 3 21.5t11 8.5q160 42 306 105.5t261 155.5q-9 31 -19.5 62.5t-27.5 67t-43.5 77.5t-68.5 95q-40 47 -85.5 94t-108.5 91l-14 -36q-6 -16 -16 -17q-9 -1 -20 5q-56 36 -95.5 64.5t-64 55.5t-36 54
t-11.5 59q0 36 10.5 74t26.5 66q14 28 36 28q14 0 41.5 -15.5t63.5 -42t77 -62t81.5 -75t78 -81t65.5 -80.5q53 -71 88.5 -132.5t57.5 -114.5t33 -99t16 -86q39 39 63.5 73t38.5 66t19 64t5 67q0 18 -3.5 54.5t-9 82.5t-12 98.5t-13 104t-11.5 97.5t-8 80q-1 13 -1 24.5
t2 21.5q-16 16 -25.5 41t-9.5 49q0 37 22.5 81.5t57.5 92.5zM347 1466q8 0 8 -7q0 -6 -2.5 -17t-10.5 -32q-8 -20 -15.5 -32.5t-15.5 -14.5q-91 -19 -146 -39t-85 -36.5t-41 -27t-15 -10.5q-8 0 -10 17t-2 38q0 11 17.5 31.5t49.5 40.5q-35 14 -58.5 41.5t-23.5 58.5
q0 37 17.5 72t46 62.5t64 44.5t70.5 17q38 0 62.5 -16t24.5 -38q0 -26 -19 -66q-6 -7 -10 -7q-6 0 -11 5.5t-13.5 12t-22.5 12t-38 5.5q-15 0 -29.5 -5t-26 -14t-18 -20t-6.5 -23q0 -17 14 -31t33.5 -23.5t41 -15t35.5 -5.5q18 0 40 3.5t41.5 7.5t34 7.5t19.5 3.5z" />
    <glyph glyph-name="uniFEF8" unicode="&#xfee0;&#xfe84;" horiz-adv-x="1236" arabic-form="final" 
d="M1236 160q-41 0 -82.5 8.5t-78 32t-64.5 65t-41 107.5q-21 96 -28.5 186t-17.5 179h-4q-7 -57 -20.5 -122.5t-38.5 -133t-62.5 -134t-92.5 -125.5q-57 -67 -136 -106t-171 -62q-33 -8 -73.5 -16t-80.5 -14t-76 -10t-61 -4q-19 0 -19 46q0 14 3.5 20.5t11.5 8.5
q77 20 155.5 50t152 70t139.5 90t118 110q-16 63 -47.5 127t-76.5 126t-102.5 121t-126.5 112l-14 -38q-5 -14 -16 -16q-8 -1 -21 6q-56 36 -95 65.5t-63.5 56.5t-36 54t-11.5 59q0 40 13 82t31 68q10 14 25 16q13 2 22 -5q39 -22 87.5 -57.5t101 -81t105 -100.5t98.5 -116
q89 -120 132 -227.5t55 -193.5q33 46 62 105t50 135t33.5 172.5t13.5 218.5l-10 217q0 29 12 57.5t32 60.5q15 25 29.5 41.5t23.5 16.5q12 0 14 -13q17 -211 33.5 -426t36.5 -433q8 -89 26.5 -144t44 -86.5t56.5 -42.5t66 -11zM485 1523q8 0 8 -7q0 -6 -2.5 -17t-10.5 -32
q-8 -20 -15.5 -32.5t-15.5 -14.5q-91 -19 -146 -39t-85 -36.5t-41 -27t-15 -10.5q-8 0 -10 17t-2 38q0 11 17.5 31.5t49.5 40.5q-35 14 -58.5 41.5t-23.5 58.5q0 37 17.5 72t46 62.5t64 44.5t70.5 17q38 0 62.5 -16t24.5 -38q0 -26 -19 -66q-6 -7 -10 -7q-6 0 -11 5.5
t-13.5 12t-22.5 12t-38 5.5q-15 0 -29.5 -5t-26 -14t-18 -20t-6.5 -23q0 -17 14 -31t33.5 -23.5t41 -15t35.5 -5.5q18 0 40 3.5t41.5 7.5t34 7.5t19.5 3.5z" />
    <glyph glyph-name="uniFEF9" unicode="&#xfedf;&#xfe88;" horiz-adv-x="1112" arabic-form="isolated" 
d="M880 1496q6 8 12 8q10 0 10 -9q2 -20 6.5 -36t15 -32.5t28 -36t46.5 -47.5q14 -12 18 -21t4 -20q0 -13 -6 -32t-15 -37t-20 -32.5t-21 -18.5q5 -57 11.5 -117t12 -118.5t9.5 -112.5t4 -99q0 -50 -7 -115t-31 -137t-68.5 -145t-119.5 -139q-72 -63 -156.5 -98t-189.5 -54
q-32 -6 -72 -12.5t-80 -12t-75.5 -8.5t-58.5 -3q-10 0 -14.5 12t-4.5 33q0 15 4 21.5t12 8.5q78 21 155 47.5t149.5 59t138.5 71t123 83.5q-9 40 -20 80.5t-29 86t-46.5 99.5t-73.5 122q-42 60 -91 120t-115 118l-14 -37q-6 -15 -18 -17q-11 -2 -20 6q-58 36 -98.5 64.5
t-66 55.5t-37.5 54.5t-12 60.5q0 36 10.5 74t27.5 67q7 13 16 20.5t21 7.5q14 0 43.5 -18t67 -49t80.5 -72.5t85.5 -87.5t81.5 -94t69 -93q56 -85 93 -158.5t60 -137t34.5 -118t16.5 -102.5q38 39 62.5 73t39 66.5t20 64t5.5 66.5q0 18 -3.5 54.5t-9 82.5t-12.5 99
t-13.5 104.5t-11.5 97.5t-8 80q-1 12 -0.5 23t1.5 22q-16 16 -25 41t-9 49q0 37 22 81.5t57 92.5zM681 -219q8 0 8 -7q0 -6 -2.5 -17t-10.5 -32q-8 -20 -15.5 -32.5t-15.5 -14.5q-91 -19 -146 -39t-85 -36.5t-41 -27t-15 -10.5q-8 0 -10 17t-2 38q0 11 17.5 31.5t49.5 40.5
q-35 14 -58.5 41.5t-23.5 58.5q0 37 17.5 72t46 62.5t64 44.5t70.5 17q38 0 62.5 -16t24.5 -38q0 -26 -19 -66q-6 -7 -10 -7q-6 0 -11 5.5t-13.5 12t-22.5 12t-38 5.5q-15 0 -29.5 -5t-26 -14t-18 -20t-6.5 -23q0 -17 14 -31t33.5 -23.5t41 -15t35.5 -5.5q18 0 40 3.5
t41.5 7.5t34 7.5t19.5 3.5z" />
    <glyph glyph-name="uniFEFA" unicode="&#xfee0;&#xfe88;" horiz-adv-x="1266" arabic-form="final" 
d="M1266 160q-41 0 -82.5 8.5t-78.5 32t-65 65t-41 107.5q-21 96 -28 186t-17 179h-5q-7 -57 -20.5 -122.5t-38.5 -133t-62.5 -134t-91.5 -125.5q-58 -67 -137.5 -106t-170.5 -62q-33 -8 -73 -16t-80 -14t-76 -10t-61 -4q-19 0 -19 46q0 14 3.5 20.5t11.5 8.5
q77 20 155.5 50t152 70t139 90t117.5 110q-17 76 -50 153t-81 152.5t-109 147t-134 136.5l-14 -39q-6 -14 -18 -15q-8 -2 -20 6q-57 36 -97.5 65.5t-66 57t-37.5 54.5t-12 59q0 20 3.5 41t9.5 41t14 38t17 31q12 15 25 16q10 1 21 -5q41 -26 92.5 -65.5t106.5 -90.5
t110 -112t104 -131q48 -69 82 -134t57.5 -126t37.5 -116.5t20 -105.5q33 46 62 105t50 135t33.5 172.5t13.5 218.5q-3 54 -5.5 108.5t-4.5 108.5q0 29 12 57.5t32 60.5q15 24 29 41t24 17q12 0 14 -14q17 -211 33.5 -425.5t36.5 -432.5q8 -89 26.5 -144t44 -86.5t57 -42.5
t65.5 -11zM683 -219q8 0 8 -7q0 -6 -2.5 -17t-10.5 -32q-8 -20 -15.5 -32.5t-15.5 -14.5q-91 -19 -146 -39t-85 -36.5t-41 -27t-15 -10.5q-8 0 -10 17t-2 38q0 11 17.5 31.5t49.5 40.5q-35 14 -58.5 41.5t-23.5 58.5q0 37 17.5 72t46 62.5t64 44.5t70.5 17q38 0 62.5 -16
t24.5 -38q0 -26 -19 -66q-6 -7 -10 -7q-6 0 -11 5.5t-13.5 12t-22.5 12t-38 5.5q-15 0 -29.5 -5t-26 -14t-18 -20t-6.5 -23q0 -17 14 -31t33.5 -23.5t41 -15t35.5 -5.5q18 0 40 3.5t41.5 7.5t34 7.5t19.5 3.5z" />
    <glyph glyph-name="f_b.liga" unicode="fb" horiz-adv-x="1690" 
d="M1594 487q0 -117 -25 -210.5t-74 -159.5t-121.5 -101t-165.5 -35q-43 0 -79.5 8.5t-71.5 27.5t-69.5 48t-74.5 70v-110q0 -8 -4 -14t-13 -9.5t-23 -5.5t-34 -2q-21 0 -35 2t-22.5 5.5t-12 9.5t-3.5 14v1221q-4 -3 -8.5 -4.5t-10.5 -1.5q-9 0 -34.5 5.5t-49.5 9.5t-48.5 6
t-47.5 2q-62 0 -102 -12.5t-63 -38.5t-31.5 -67t-8.5 -96v-98h185q8 0 14 -3.5t10.5 -12t6.5 -21.5t2 -32q0 -36 -8.5 -52t-24.5 -16h-185v-789q0 -8 -4 -13.5t-13.5 -9.5t-25.5 -6t-40 -2t-40 2t-25.5 6t-13.5 9.5t-4 13.5v789h-127q-16 0 -24 16t-8 52q0 19 2 32t6 21.5
t10 12t14 3.5h127v96q0 93 21 160t64.5 109.5t110.5 63t160 20.5q26 0 54 -2t53.5 -5.5t46 -7t32 -7t18.5 -8.5t10 -13q1 10 4.5 16t12 11t24.5 7t42 2q24 0 40 -2t25.5 -6t13.5 -10t4 -14v-539q41 41 78 69t73 45.5t72.5 25.5t75.5 8q98 0 167 -39t112.5 -104.5
t63.5 -153.5t20 -186zM1422 468q0 69 -11 134t-37 115t-69 80.5t-107 30.5q-32 0 -62.5 -9t-63 -30t-67 -54t-73.5 -83v-359q67 -83 129 -126.5t130 -43.5q62 0 106 30t72 79.5t40.5 111t12.5 124.5z" />
    <glyph glyph-name="f_f_b.liga" unicode="ffb" horiz-adv-x="2261" 
d="M1992 468q0 69 -11 134t-37 115t-69 80.5t-107 30.5q-32 0 -62.5 -9t-63 -30t-67 -54t-72.5 -83v-359q67 -83 129 -126.5t129 -43.5q62 0 106 30t71.5 79.5t40.5 111t13 124.5zM766 951v97q0 93 21 159.5t64.5 109.5t110.5 63.5t160 20.5q27 0 55 -2t53.5 -5.5t46 -7
t31.5 -7t18 -8.5t11 -14q0 10 3.5 16t12.5 11t25 7t41 2t41 -2t25.5 -6t13.5 -10t4 -14v-539q40 41 77 69t73 45.5t72.5 25.5t75.5 8q98 0 167.5 -39t113 -104.5t63.5 -153.5t20 -186q0 -117 -25.5 -210.5t-74.5 -159.5t-121.5 -101t-165.5 -35q-43 0 -79.5 8.5t-71 27.5
t-70 48t-74.5 70v-110q0 -9 -3.5 -14.5t-13 -9t-23 -5.5t-34.5 -2q-20 0 -34 2t-22.5 5.5t-12 9t-3.5 14.5v1222q-4 -3 -8.5 -4.5t-10.5 -1.5q-10 0 -35.5 5.5t-49.5 9.5t-48.5 6t-46.5 2q-62 0 -102 -12.5t-63 -39t-32 -67t-9 -95.5v-99h186q8 0 13.5 -3.5t10 -12
t6.5 -21.5t2 -32q0 -36 -8.5 -52t-23.5 -16h-186v-789q0 -8 -4 -13.5t-13.5 -9.5t-25.5 -6t-40 -2t-40 2t-25.5 6t-13.5 9.5t-4 13.5v789h-404v-789q0 -8 -4 -13.5t-13.5 -9.5t-25.5 -6t-40 -2t-40 2t-25.5 6t-13.5 9.5t-4 13.5v789h-127q-16 0 -24 16t-8 52q0 19 2 32
t6 21.5t10 12t14 3.5h127v85q0 93 18 159.5t54 109.5t89.5 63.5t124.5 20.5q44 0 77 -7.5t54 -16.5q10 -4 16 -10t10 -15.5t5.5 -23t1.5 -32.5q0 -32 -5 -46.5t-18 -14.5q-8 0 -18.5 4.5t-26.5 10t-36 10t-46 4.5q-74 0 -104 -51t-30 -163v-87h404z" />
    <glyph glyph-name="f_h.liga" unicode="fh" horiz-adv-x="1691" 
d="M1542 25q0 -8 -4 -13.5t-13.5 -9.5t-25.5 -6t-40 -2t-40 2t-26 6t-13.5 9.5t-3.5 13.5v527q0 77 -11 124t-35 81t-59.5 52t-84.5 18q-62 0 -123.5 -44t-130.5 -129v-629q0 -8 -4 -13.5t-13.5 -9.5t-25.5 -6t-40 -2t-40 2t-25.5 6t-13.5 9.5t-4 13.5v1221q-4 -3 -8.5 -4.5
t-10.5 -1.5q-9 0 -34.5 5.5t-49.5 9.5t-48.5 6t-47.5 2q-62 0 -102 -12.5t-63 -38.5t-31.5 -67t-8.5 -96v-98h185q8 0 14 -3.5t10.5 -12t6.5 -21.5t2 -32q0 -36 -8.5 -52t-24.5 -16h-185v-789q0 -8 -4 -13.5t-13.5 -9.5t-25.5 -6t-40 -2t-40 2t-25.5 6t-13.5 9.5t-4 13.5
v789h-127q-16 0 -24 16t-8 52q0 19 2 32t6 21.5t10 12t14 3.5h127v96q0 93 21 160t64.5 109.5t110.5 63t160 20.5q26 0 54 -2t53.5 -5.5t46 -7t32 -7t18.5 -8.5t10 -13q1 10 4.5 16t12 11t24.5 7t42 2q24 0 40 -2t25.5 -6t13.5 -10t4 -14v-539q71 75 142.5 111.5t146.5 36.5
q89 0 150.5 -30.5t99.5 -81.5t54.5 -119.5t16.5 -165.5v-548z" />
    <glyph glyph-name="f_f_h.liga" unicode="ffh" horiz-adv-x="2261" 
d="M766 1048q0 93 21 159.5t64.5 109.5t110.5 63.5t160 20.5q27 0 55 -2t53.5 -5.5t46 -7t31.5 -7t18 -8.5t11 -14q0 10 3.5 16t12.5 11t25 7t41 2t41 -2t25.5 -6t13.5 -10t4 -14v-539q71 75 142.5 111.5t145.5 36.5q89 0 151 -30.5t99.5 -81.5t54 -119.5t16.5 -165.5v-548
q0 -8 -4 -13.5t-13 -9.5t-25 -6t-40 -2q-25 0 -41 2t-25 6t-13 9.5t-4 13.5v527q0 77 -12 124t-35 81t-59.5 52t-84.5 18q-62 0 -123.5 -44t-129.5 -129v-629q0 -8 -4 -13.5t-13.5 -9.5t-25.5 -6t-41 -2q-23 0 -39.5 2t-26 6t-13 9.5t-3.5 13.5v1222q-4 -3 -8.5 -4.5
t-10.5 -1.5q-9 0 -31.5 5t-50 9.5t-52 6.5t-46.5 2q-62 0 -102 -12.5t-63 -39t-32 -67t-9 -95.5v-99h186q8 0 13.5 -3.5t10 -12t6.5 -21.5t2 -32q0 -36 -8.5 -52t-23.5 -16h-186v-789q0 -8 -4 -13.5t-13.5 -9.5t-25.5 -6t-40 -2t-40 2t-25.5 6t-13.5 9.5t-4 13.5v789h-404
v-789q0 -8 -4 -13.5t-13.5 -9.5t-25.5 -6t-40 -2t-40 2t-25.5 6t-13.5 9.5t-4 13.5v789h-127q-16 0 -24 16t-8 52q0 19 2 32t6 21.5t10 12t14 3.5h127v85q0 93 18 159.5t54 109.5t89.5 63.5t124.5 20.5q44 0 77 -7.5t54 -16.5q10 -4 16 -10t10 -15.5t5.5 -23t1.5 -32.5
q0 -32 -5 -46.5t-18 -14.5q-8 0 -18.5 4.5t-26.5 10t-36 10t-46 4.5q-74 0 -104 -51t-30 -163v-87h404v97z" />
    <glyph glyph-name="f_igrave.liga" unicode="f&#xec;" horiz-adv-x="1084" 
d="M932 25q0 -8 -4 -13.5t-13.5 -9.5t-25.5 -6t-40 -2t-40 2t-25.5 6t-13.5 9.5t-4 13.5v789h-404v-789q0 -8 -4 -13.5t-13.5 -9.5t-25.5 -6t-40 -2t-40 2t-25.5 6t-13.5 9.5t-4 13.5v789h-127q-16 0 -24 16t-8 52q0 19 2 32t6 21.5t10 12t14 3.5h127v112q0 87 18 150.5
t52.5 104.5t85 61.5t115.5 20.5q29 0 55.5 -4t44 -10t24 -12.5t10 -16.5t5 -23.5t1.5 -31.5q0 -32 -5 -46t-18 -14q-7 0 -16 3t-21.5 7t-29 7.5t-38.5 3.5q-62 0 -89.5 -48.5t-27.5 -149.5v-114h519q26 0 38.5 -13.5t12.5 -37.5v-875zM925 1132q4 -10 4 -18.5t-6 -13.5
t-19.5 -7.5t-35.5 -2.5q-20 0 -32.5 1t-20.5 4.5t-13.5 9.5t-10.5 16l-130 233q-6 10 -5 18.5t10 14.5t27 9.5t46 3.5q24 0 39.5 -1.5t25 -5.5t14.5 -11.5t10 -17.5z" />
    <glyph glyph-name="f_iacute.liga" unicode="f&#xed;" horiz-adv-x="1084" 
d="M932 25q0 -8 -4 -13.5t-13.5 -9.5t-25.5 -6t-40 -2t-40 2t-25.5 6t-13.5 9.5t-4 13.5v789h-404v-789q0 -8 -4 -13.5t-13.5 -9.5t-25.5 -6t-40 -2t-40 2t-25.5 6t-13.5 9.5t-4 13.5v789h-127q-16 0 -24 16t-8 52q0 19 2 32t6 21.5t10 12t14 3.5h127v96q0 93 18 159.5
t54 109.5t89.5 63.5t124.5 20.5q39 0 72 -6.5t50 -14t23 -13.5t9.5 -15.5t5.5 -23t2 -32.5q0 -32 -5 -46t-18 -14q-7 0 -18 4t-26.5 9.5t-35.5 10t-45 4.5q-74 0 -104 -51t-30 -163v-98h519q26 0 38.5 -13.5t12.5 -37.5v-875zM925 1364q6 11 14 18t19.5 11t28.5 6t41 2
q28 0 45.5 -3.5t24.5 -10t6 -15t-9 -17.5l-181 -233q-8 -10 -14.5 -16t-15 -9.5t-22 -5t-33.5 -1.5q-22 0 -35 3t-18.5 8t-4 13t8.5 19zM639 950z" />
    <glyph glyph-name="f_icircumflex.liga" unicode="f&#xee;" horiz-adv-x="1084" 
d="M932 25q0 -8 -4 -13.5t-13.5 -9.5t-25.5 -6t-40 -2t-40 2t-25.5 6t-13.5 9.5t-4 13.5v789h-404v-789q0 -8 -4 -13.5t-13.5 -9.5t-25.5 -6t-40 -2t-40 2t-25.5 6t-13.5 9.5t-4 13.5v789h-127q-16 0 -24 16t-8 52q0 19 2 32t6 21.5t10 12t14 3.5h127v112q0 87 18 150.5
t52.5 104.5t85 61.5t115.5 20.5q29 0 56.5 -4t43.5 -10t22.5 -12.5t10 -15.5t5 -22.5t1.5 -32.5q0 -31 -5 -45t-18 -14q-7 0 -16 3t-20.5 7t-29 7.5t-39.5 3.5q-61 0 -88.5 -48.5t-27.5 -149.5v-116h519q26 0 38.5 -13.5t12.5 -37.5v-875zM743 1118q-5 -9 -11 -14.5t-14 -9
t-21 -4.5t-32 -1q-24 0 -37.5 3t-17.5 10t0 18.5t15 27.5l153 226q6 8 12 12.5t16 7.5t25.5 4t37.5 1q21 0 35 -1t24 -4.5t16.5 -8.5t11.5 -11l156 -229q10 -16 13.5 -26.5t-1.5 -17t-19 -9.5t-39 -3q-20 0 -33 1t-21 4.5t-13 9t-11 14.5l-122 181z" />
    <glyph glyph-name="f_itilde.liga" unicode="f&#x129;" horiz-adv-x="1103" 
d="M951 25q0 -8 -4 -13.5t-13.5 -9.5t-25.5 -6t-40 -2t-40 2t-26 6t-13.5 9.5t-3.5 13.5v789h-423v-789q0 -8 -4 -13.5t-13.5 -9.5t-25.5 -6t-40 -2t-40 2t-25.5 6t-13.5 9.5t-4 13.5v789h-127q-16 0 -24 16t-8 52q0 19 2 32t6 21.5t10 12t14 3.5h127v117q0 86 18 148.5
t52 103t84 60.5t114 20q15 0 29.5 -1t28 -3t25 -5t20 -6.5t13.5 -8.5t8 -13t4.5 -21t1.5 -32q0 -32 -5 -47.5t-17 -15.5q-7 0 -14.5 2t-18.5 5t-26 5.5t-37 2.5q-61 0 -87.5 -48t-26.5 -149v-114h538q26 0 38.5 -13.5t12.5 -37.5v-875zM1154 1292q0 -53 -12 -93.5t-34.5 -68
t-53.5 -42t-69 -14.5q-48 0 -82 20.5t-60 45.5t-47.5 45.5t-44.5 20.5q-30 0 -43.5 -29.5t-13.5 -75.5q0 -15 -11.5 -21t-45.5 -6q-27 0 -41 8t-14 34q0 100 45 159t125 59q32 0 57.5 -9.5t46.5 -24.5t38.5 -32t33 -32t29.5 -24.5t29 -9.5q27 0 42 26t15 79q0 15 12.5 21
t40.5 6q32 0 45 -8t13 -34z" />
    <glyph glyph-name="f_idieresis.liga" unicode="f&#xef;" horiz-adv-x="1103" 
d="M951 25q0 -8 -4 -13.5t-13.5 -9.5t-25.5 -6t-40 -2t-40 2t-26 6t-13.5 9.5t-3.5 13.5v789h-423v-789q0 -8 -4 -13.5t-13.5 -9.5t-25.5 -6t-40 -2t-40 2t-25.5 6t-13.5 9.5t-4 13.5v789h-127q-16 0 -24 16t-8 52q0 19 2 32t6 21.5t10 12t14 3.5h127v117q0 86 18 148.5
t52 103t84 60.5t114 20q15 0 29.5 -1t28 -3t25 -5t20 -6.5t13.5 -8.5t8 -13t4.5 -21t1.5 -32q0 -32 -5 -47.5t-17 -15.5q-7 0 -14.5 2t-18.5 5t-26 5.5t-37 2.5q-61 0 -87.5 -48t-26.5 -149v-114h538q26 0 38.5 -13.5t12.5 -37.5v-875zM646 1228q0 27 4.5 45t15 29t28 15.5
t42.5 4.5t42 -4.5t27.5 -15.5t15 -29t4.5 -45t-4.5 -45t-15 -29t-27.5 -16t-42 -5t-42.5 5t-28 16t-15 29t-4.5 45zM935 1228q0 27 4.5 45t15 29t28 15.5t41.5 4.5q26 0 43 -4.5t27 -15.5t14.5 -29t4.5 -45t-4.5 -45t-14.5 -29t-27 -16t-43 -5q-24 0 -41.5 5t-28 16t-15 29
t-4.5 45z" />
    <glyph glyph-name="f_imacron.liga" unicode="f&#x12b;" horiz-adv-x="1103" 
d="M951 25q0 -8 -4 -13.5t-13.5 -9.5t-25.5 -6t-40 -2t-40 2t-26 6t-13.5 9.5t-3.5 13.5v789h-423v-789q0 -8 -4 -13.5t-13.5 -9.5t-25.5 -6t-40 -2t-40 2t-25.5 6t-13.5 9.5t-4 13.5v789h-127q-16 0 -24 16t-8 52q0 19 2 32t6 21.5t10 12t14 3.5h127v117q0 86 18 148.5
t52 103t84 60.5t114 20q15 0 29.5 -1t28 -3t25 -5t20 -6.5t13.5 -8.5t8 -13t4.5 -21t1.5 -32q0 -32 -5 -47.5t-17 -15.5q-7 0 -14.5 2t-18.5 5t-26 5.5t-37 2.5q-61 0 -88 -48t-26 -149v-114h538q26 0 38.5 -13.5t12.5 -37.5v-875zM1087 1293q7 0 13.5 -3.5t10.5 -11
t5.5 -20t1.5 -30.5q0 -17 -1.5 -28.5t-5.5 -19.5t-10.5 -12t-13.5 -4h-428q-8 0 -15 4t-11 12t-5.5 19.5t-1.5 28.5q0 18 1.5 30.5t5.5 20t11 11t15 3.5h428z" />
    <glyph glyph-name="f_ibreve.liga" unicode="f&#x12d;" horiz-adv-x="1103" 
d="M951 25q0 -8 -4 -13.5t-13.5 -9.5t-25.5 -6t-40 -2t-40 2t-26 6t-13.5 9.5t-3.5 13.5v789h-423v-789q0 -8 -4 -13.5t-13.5 -9.5t-25.5 -6t-40 -2t-40 2t-25.5 6t-13.5 9.5t-4 13.5v789h-127q-16 0 -24 16t-8 52q0 19 2 32t6 21.5t10 12t14 3.5h127v117q0 86 18 148.5
t52 103t84 60.5t114 20q15 0 29.5 -1t28 -3t25 -5t20 -6.5t13.5 -8.5t8 -13t4.5 -21t1.5 -32q0 -32 -5 -47.5t-17 -15.5q-7 0 -14.5 2t-18.5 5t-26 5.5t-37 2.5q-61 0 -87.5 -48t-26.5 -149v-114h538q26 0 38.5 -13.5t12.5 -37.5v-875zM999 1356q0 14 12.5 21.5t45.5 7.5
q36 0 47 -6t11 -22q0 -68 -15 -118.5t-45 -84t-75.5 -51t-107.5 -17.5q-66 0 -112.5 18t-75.5 52.5t-42 84t-13 113.5q0 16 11.5 23.5t44.5 7.5q17 0 29 -1.5t18.5 -5t9.5 -9.5t3 -13q2 -36 9.5 -64t22 -48t38 -31t57.5 -11q28 0 51 9t39 27.5t25.5 47.5t11.5 70z" />
    <glyph glyph-name="f_iogonek.liga" unicode="f&#x12f;" horiz-adv-x="1084" 
d="M950 1228q0 -28 -4.5 -47t-15.5 -30.5t-30.5 -16.5t-49.5 -5q-29 0 -48.5 5t-31 16.5t-16.5 30.5t-5 47t5 46.5t16.5 31t31 17t48.5 4.5q30 0 49.5 -4.5t30.5 -17t15.5 -31t4.5 -46.5zM932 25q0 -20 -5.5 -33.5t-14.5 -23.5l-73 -73q-16 -16 -25.5 -28t-14 -22
t-6.5 -18.5t-2 -17.5q0 -26 18 -39t55 -13h108q7 0 12.5 -2t9 -7t5 -14.5t1.5 -24.5t-2 -24.5t-5 -16t-10 -9.5t-16 -6q-33 -9 -67 -13.5t-76 -4.5q-45 0 -80.5 10t-61 28.5t-38.5 46.5t-13 65q0 16 2.5 33.5t11 36.5t23.5 40.5t41 47.5l57 57v814h-404v-789q0 -8 -4 -13.5
t-13.5 -9.5t-25.5 -6t-40 -2t-40 2t-25.5 6t-13.5 9.5t-4 13.5v789h-127q-16 0 -24 16t-8 52q0 19 2 32t6 21.5t10 12t14 3.5h127v97q0 93 18 159.5t53.5 109.5t88 63.5t120.5 20.5q22 0 44 -2t40 -6t31.5 -8.5t18.5 -9.5t8 -10.5t5 -13.5t3 -20t1 -29q0 -32 -5 -46t-17 -14
q-8 0 -16.5 3.5t-21.5 7.5t-31.5 7.5t-46.5 3.5q-69 0 -98.5 -51t-28.5 -163v-99h519q26 0 38.5 -13.5t12.5 -37.5v-875z" />
    <glyph glyph-name="f_dotlessi.liga" unicode="f&#x131;" horiz-adv-x="1084" 
d="M932 25q0 -8 -4 -13.5t-13.5 -9.5t-25.5 -6t-40 -2t-40 2t-25.5 6t-13.5 9.5t-4 13.5v789h-404v-789q0 -8 -4 -13.5t-13.5 -9.5t-25.5 -6t-40 -2t-40 2t-25.5 6t-13.5 9.5t-4 13.5v789h-127q-16 0 -24 16t-8 52q0 19 2 32t6 21.5t10 12t14 3.5h127v96q0 93 18 159.5
t54 109.5t89.5 63.5t124.5 20.5q39 0 72 -6.5t50 -14t23 -13.5t9.5 -15.5t5.5 -23t2 -32.5q0 -32 -5 -46t-18 -14q-7 0 -18 4t-26.5 9.5t-35.5 10t-45 4.5q-74 0 -104 -51t-30 -163v-98h519q26 0 38.5 -13.5t12.5 -37.5v-875z" />
    <glyph glyph-name="f_f_igrave.liga" unicode="ff&#xec;" horiz-adv-x="1654" 
d="M1503 25q0 -8 -4 -13.5t-13.5 -9.5t-25.5 -6t-41 -2q-23 0 -39.5 2t-26 6t-13 9.5t-3.5 13.5v789h-405v-789q0 -8 -4 -13.5t-13.5 -9.5t-25.5 -6t-40 -2t-40 2t-25.5 6t-13.5 9.5t-4 13.5v789h-404v-789q0 -8 -4 -13.5t-13.5 -9.5t-25.5 -6t-40 -2t-40 2t-25.5 6
t-13.5 9.5t-4 13.5v789h-127q-16 0 -24 16t-8 52q0 19 2 32t6 21.5t10 12t14 3.5h127v85q0 93 18 159.5t54 109.5t89.5 63.5t124.5 20.5q44 0 77 -7.5t48.5 -14t21.5 -12.5t10 -15.5t5.5 -23t1.5 -32.5q0 -32 -5 -46.5t-18 -14.5q-8 0 -18.5 4.5t-26.5 10t-36 10t-46 4.5
q-74 0 -104 -51t-30 -163v-87h404v113q0 87 18 150.5t52.5 104.5t85 61.5t115.5 20.5q29 0 59.5 -4.5t44 -10t20 -12t10 -16.5t5 -23.5t1.5 -32.5q0 -31 -5 -45t-17 -14q-8 0 -16.5 3t-21 7t-29.5 7.5t-39 3.5q-61 0 -89 -48.5t-28 -149.5v-115h519q26 0 39 -13.5t13 -37.5
v-875zM1495 1132q3 -10 3.5 -18.5t-5.5 -13.5t-19 -7.5t-35 -2.5q-20 0 -33 1t-21 4.5t-13 9.5t-10 16l-131 233q-5 10 -4.5 18.5t9.5 14.5t27 9.5t46 3.5q24 0 39.5 -1.5t25 -5.5t15 -11.5t9.5 -17.5z" />
    <glyph glyph-name="f_f_iacute.liga" unicode="ff&#xed;" horiz-adv-x="1654" 
d="M1503 25q0 -8 -4 -13.5t-13.5 -9.5t-25.5 -6t-41 -2q-23 0 -39.5 2t-26 6t-13 9.5t-3.5 13.5v789h-405v-789q0 -8 -4 -13.5t-13.5 -9.5t-25.5 -6t-40 -2t-40 2t-25.5 6t-13.5 9.5t-4 13.5v789h-404v-789q0 -8 -4 -13.5t-13.5 -9.5t-25.5 -6t-40 -2t-40 2t-25.5 6
t-13.5 9.5t-4 13.5v789h-127q-16 0 -24 16t-8 52q0 19 2 32t6 21.5t10 12t14 3.5h127v85q0 93 18 159.5t54 109.5t89.5 63.5t124.5 20.5q42 0 76 -7t49.5 -14t21.5 -13t10 -15.5t5.5 -23t1.5 -32.5q0 -32 -5 -46.5t-18 -14.5q-8 0 -18.5 4.5t-26.5 10t-36 10t-46 4.5
q-74 0 -104 -51t-30 -163v-87h404v97q0 93 18.5 159.5t54.5 109.5t89.5 63.5t122.5 20.5q42 0 76.5 -7.5t49 -14t21 -12.5t10 -15.5t5 -23t1.5 -32.5q0 -32 -5 -46t-18 -14q-7 0 -17.5 4t-26 9.5t-36 10t-45.5 4.5q-73 0 -103.5 -51t-30.5 -163v-99h519q26 0 39 -13.5
t13 -37.5v-875zM1495 1364q6 11 14 18t19.5 11t28.5 6t41 2q28 0 45.5 -3.5t24.5 -10t6 -15t-9 -17.5l-181 -233q-8 -10 -14.5 -16t-15 -9.5t-22 -5t-33.5 -1.5q-22 0 -35 3t-18.5 8t-4 13t8.5 19zM1209 950z" />
    <glyph glyph-name="f_f_icircumflex.liga" unicode="ff&#xee;" horiz-adv-x="1654" 
d="M1503 25q0 -8 -4 -13.5t-13.5 -9.5t-25.5 -6t-41 -2q-23 0 -39.5 2t-26 6t-13 9.5t-3.5 13.5v789h-405v-789q0 -8 -4 -13.5t-13.5 -9.5t-25.5 -6t-40 -2t-40 2t-25.5 6t-13.5 9.5t-4 13.5v789h-404v-789q0 -8 -4 -13.5t-13.5 -9.5t-25.5 -6t-40 -2t-40 2t-25.5 6
t-13.5 9.5t-4 13.5v789h-127q-16 0 -24 16t-8 52q0 19 2 32t6 21.5t10 12t14 3.5h127v85q0 93 18 159.5t54 109.5t89.5 63.5t124.5 20.5q44 0 77 -7.5t48.5 -14t21.5 -12.5t10 -15.5t5.5 -23t1.5 -32.5q0 -32 -5 -46.5t-18 -14.5q-8 0 -18.5 4.5t-26.5 10t-36 10t-46 4.5
q-74 0 -104 -51t-30 -163v-87h404v113q0 87 18 150.5t52.5 104.5t85 61.5t115.5 20.5q29 0 59.5 -4.5t44 -10t19.5 -12t9.5 -15.5t5 -22.5t1.5 -32.5q0 -31 -4.5 -45t-17.5 -14q-7 0 -16 3t-21.5 7t-29 7t-38.5 3q-61 0 -89 -48t-28 -149v-117h519q26 0 39 -13.5t13 -37.5
v-875zM1314 1118q-6 -9 -11.5 -14.5t-14 -9t-21 -4.5t-31.5 -1q-25 0 -38 3t-17.5 10t-0.5 18.5t15 27.5l153 226q5 8 11.5 12.5t16.5 7.5t25.5 4t38.5 1q20 0 34 -1t24 -4.5t16.5 -8.5t11.5 -11l156 -229q10 -16 14 -26.5t-1 -17t-19 -9.5t-39 -3q-21 0 -33.5 1t-20.5 4.5
t-13 9t-11 14.5l-122 181z" />
    <glyph glyph-name="f_f_itilde.liga" unicode="ff&#x129;" horiz-adv-x="1673" 
d="M1521 25q0 -8 -4 -13.5t-13.5 -9.5t-25.5 -6t-40 -2t-40 2t-25.5 6t-13.5 9.5t-4 13.5v789h-423v-789q0 -8 -4 -13.5t-13.5 -9.5t-25.5 -6t-40 -2t-40 2t-25.5 6t-13.5 9.5t-4 13.5v789h-404v-789q0 -8 -4 -13.5t-13.5 -9.5t-25.5 -6t-40 -2t-40 2t-25.5 6t-13.5 9.5
t-4 13.5v789h-127q-16 0 -24 16t-8 52q0 19 2 32t6 21.5t10 12t14 3.5h127v85q0 93 18 159.5t54 109.5t89.5 63.5t124.5 20.5q44 0 77 -7.5t48.5 -14t21.5 -12.5t10 -15.5t5.5 -23t1.5 -32.5q0 -32 -5 -46.5t-18 -14.5q-8 0 -18.5 4.5t-26.5 10t-36 10t-46 4.5
q-74 0 -104 -51t-30 -163v-87h404v118q0 86 17.5 148t52 103t84 61t114.5 20q29 0 57 -4t41 -9.5t18 -10.5t8 -13t4.5 -21t1.5 -32q0 -32 -5 -47.5t-16 -15.5q-7 0 -15 2t-18.5 5t-25.5 5.5t-37 2.5q-61 0 -88 -48t-27 -149v-115h538q26 0 38.5 -13.5t12.5 -37.5v-875z
M1725 1292q0 -53 -12.5 -93.5t-34.5 -68t-53.5 -42t-68.5 -14.5q-49 0 -82.5 20.5t-60 45.5t-47.5 45.5t-44 20.5q-30 0 -43.5 -29.5t-13.5 -75.5q0 -15 -12 -21t-45 -6q-28 0 -41.5 8t-13.5 34q0 100 45 159t125 59q32 0 57 -9.5t46.5 -24.5t38.5 -32l32 -32t29.5 -24.5
t30.5 -9.5q27 0 41.5 26t14.5 79q0 15 12.5 21t41.5 6q32 0 45 -8t13 -34z" />
    <glyph glyph-name="f_f_idieresis.liga" unicode="ff&#xef;" horiz-adv-x="1673" 
d="M1521 25q0 -8 -4 -13.5t-13.5 -9.5t-25.5 -6t-40 -2t-40 2t-25.5 6t-13.5 9.5t-4 13.5v789h-423v-789q0 -8 -4 -13.5t-13.5 -9.5t-25.5 -6t-40 -2t-40 2t-25.5 6t-13.5 9.5t-4 13.5v789h-404v-789q0 -8 -4 -13.5t-13.5 -9.5t-25.5 -6t-40 -2t-40 2t-25.5 6t-13.5 9.5
t-4 13.5v789h-127q-16 0 -24 16t-8 52q0 19 2 32t6 21.5t10 12t14 3.5h127v85q0 93 18 159.5t54 109.5t89.5 63.5t124.5 20.5q44 0 77 -7.5t48.5 -14t21.5 -12.5t10 -15.5t5.5 -23t1.5 -32.5q0 -32 -5 -46.5t-18 -14.5q-8 0 -18.5 4.5t-26.5 10t-36 10t-46 4.5
q-74 0 -104 -51t-30 -163v-87h404v118q0 86 17.5 148t52 103t84 61t114.5 20q29 0 57.5 -4t41 -9.5t17.5 -10.5t8 -13t4.5 -21t1.5 -32q0 -32 -5 -47.5t-16 -15.5q-7 0 -15 2t-18.5 5t-25.5 5.5t-37 2.5q-61 0 -88 -48t-27 -149v-115h538q26 0 38.5 -13.5t12.5 -37.5v-875z
M1217 1228q0 27 4.5 45t15 29t27.5 15.5t42 4.5t42.5 -4.5t28 -15.5t14.5 -29t4 -45t-4 -45t-14.5 -29t-28 -16t-42.5 -5t-42 5t-27.5 16t-15 29t-4.5 45zM1506 1228q0 27 4.5 45t15 29t27 15.5t42.5 4.5q25 0 42 -4.5t27.5 -15.5t15 -29t4.5 -45t-4.5 -45t-15 -29
t-27.5 -16t-42 -5q-26 0 -42.5 5t-27 16t-15 29t-4.5 45z" />
    <glyph glyph-name="f_f_imacron.liga" unicode="ff&#x12b;" horiz-adv-x="1673" 
d="M1521 25q0 -8 -4 -13.5t-13.5 -9.5t-25.5 -6t-40 -2t-40 2t-25.5 6t-13.5 9.5t-4 13.5v789h-423v-789q0 -8 -4 -13.5t-13.5 -9.5t-25.5 -6t-40 -2t-40 2t-25.5 6t-13.5 9.5t-4 13.5v789h-404v-789q0 -8 -4 -13.5t-13.5 -9.5t-25.5 -6t-40 -2t-40 2t-25.5 6t-13.5 9.5
t-4 13.5v789h-127q-16 0 -24 16t-8 52q0 19 2 32t6 21.5t10 12t14 3.5h127v85q0 93 18 159.5t54 109.5t89.5 63.5t124.5 20.5q44 0 77 -7.5t48.5 -14t21.5 -12.5t10 -15.5t5.5 -23t1.5 -32.5q0 -32 -5 -46.5t-18 -14.5q-8 0 -18.5 4.5t-26.5 10t-36 10t-46 4.5
q-74 0 -104 -51t-30 -163v-87h404v118q0 86 17.5 148t52 103t84 61t114.5 20q29 0 57.5 -4t41 -9.5t17.5 -10.5t8 -13t4.5 -21t1.5 -32q0 -32 -5 -47.5t-16 -15.5q-7 0 -15 2t-18.5 5t-25.5 5.5t-37 2.5q-61 0 -88 -48t-27 -149v-115h538q26 0 38.5 -13.5t12.5 -37.5v-875z
M1658 1293q7 0 13 -3.5t9.5 -11t6 -20t2.5 -30.5q0 -17 -2.5 -28.5t-6 -19.5t-9.5 -12t-13 -4h-428q-9 0 -15.5 4t-10.5 12t-5.5 19.5t-1.5 28.5q0 34 7.5 49.5t25.5 15.5h428z" />
    <glyph glyph-name="f_f_ibreve.liga" unicode="ff&#x12d;" horiz-adv-x="1673" 
d="M1521 25q0 -8 -4 -13.5t-13.5 -9.5t-25.5 -6t-40 -2t-40 2t-25.5 6t-13.5 9.5t-4 13.5v789h-423v-789q0 -8 -4 -13.5t-13.5 -9.5t-25.5 -6t-40 -2t-40 2t-25.5 6t-13.5 9.5t-4 13.5v789h-404v-789q0 -8 -4 -13.5t-13.5 -9.5t-25.5 -6t-40 -2t-40 2t-25.5 6t-13.5 9.5
t-4 13.5v789h-127q-16 0 -24 16t-8 52q0 19 2 32t6 21.5t10 12t14 3.5h127v85q0 93 18 159.5t54 109.5t89.5 63.5t124.5 20.5q44 0 77 -7.5t48.5 -14t21.5 -12.5t10 -15.5t5.5 -23t1.5 -32.5q0 -32 -5 -46.5t-18 -14.5q-8 0 -18.5 4.5t-26.5 10t-36 10t-46 4.5
q-74 0 -104 -51t-30 -163v-87h404v118q0 86 17.5 148t52 103t84 61t114.5 20q29 0 57.5 -4t41 -9.5t17.5 -10.5t8 -13t4.5 -21t1.5 -32q0 -32 -5 -47.5t-16 -15.5q-7 0 -15 2t-18.5 5t-25.5 5.5t-37 2.5q-61 0 -88 -48t-27 -149v-115h538q26 0 38.5 -13.5t12.5 -37.5v-875z
M1569 1356q1 14 13.5 21.5t45.5 7.5q18 0 29 -1.5t17.5 -5t8.5 -8.5t2 -13q0 -68 -15 -118.5t-45 -84t-75.5 -51t-107.5 -17.5q-66 0 -112.5 18t-75.5 52.5t-42 84t-13 113.5q0 8 2.5 14t9.5 10t17.5 5.5t26.5 1.5q36 0 48 -6.5t13 -22.5q2 -36 9.5 -64t22 -48t37.5 -31
t57 -11q57 0 90 36t37 118z" />
    <glyph glyph-name="f_f_iogonek.liga" unicode="ff&#x12f;" horiz-adv-x="1654" 
d="M1521 1228q0 -28 -4.5 -47t-16 -30.5t-31 -16.5t-49.5 -5q-29 0 -48.5 5t-31 16.5t-16.5 30.5t-5 47t5 46.5t16.5 31t31 17t48.5 4.5q30 0 49.5 -4.5t31 -17t16 -31t4.5 -46.5zM1570 -291q0 -15 -1.5 -24.5t-5 -16t-10 -9.5t-15.5 -6q-33 -9 -67 -13.5t-76 -4.5
q-45 0 -81.5 10t-61 28.5t-38 46.5t-13.5 65q0 16 2.5 33.5t11 36.5t24 40.5t41.5 47.5l57 57v814h-405v-789q0 -8 -4 -13.5t-13.5 -9.5t-25.5 -6t-40 -2t-40 2t-25.5 6t-13.5 9.5t-4 13.5v789h-404v-789q0 -8 -4 -13.5t-13.5 -9.5t-25.5 -6t-40 -2t-40 2t-25.5 6t-13.5 9.5
t-4 13.5v789h-127q-16 0 -24 16t-8 52q0 19 2 32t6 21.5t10 12t14 3.5h127v85q0 93 18 159.5t54 109.5t89.5 63.5t124.5 20.5q44 0 77 -7.5t48.5 -14t21.5 -12.5t10 -15.5t5.5 -23t1.5 -32.5q0 -32 -5 -46.5t-18 -14.5q-8 0 -18.5 4.5t-26.5 10t-36 10t-46 4.5
q-74 0 -104 -51t-30 -163v-87h404v97q0 93 18.5 159.5t53.5 109.5t87.5 63.5t120.5 20.5q22 0 44.5 -2t40 -6t31 -8.5t18.5 -9.5t8 -10t5.5 -13.5t3.5 -20.5t1 -29q0 -32 -5 -46t-18 -14q-7 0 -16 3.5t-21.5 7.5t-31.5 7.5t-46 3.5q-69 0 -98.5 -51t-29.5 -163v-99h519
q26 0 39 -13.5t13 -37.5v-875q0 -12 -6 -29.5t-15 -27.5l-73 -73q-31 -30 -39.5 -49.5t-8.5 -36.5q0 -52 74 -52h107q7 0 13 -2t9 -7t4.5 -14.5t1.5 -24.5z" />
    <glyph glyph-name="f_f_dotlessi.liga" unicode="ff&#x131;" horiz-adv-x="1654" 
d="M1503 25q0 -8 -4 -13.5t-13.5 -9.5t-25.5 -6t-41 -2q-23 0 -39.5 2t-26 6t-13 9.5t-3.5 13.5v789h-405v-789q0 -8 -4 -13.5t-13.5 -9.5t-25.5 -6t-40 -2t-40 2t-25.5 6t-13.5 9.5t-4 13.5v789h-404v-789q0 -8 -4 -13.5t-13.5 -9.5t-25.5 -6t-40 -2t-40 2t-25.5 6
t-13.5 9.5t-4 13.5v789h-127q-16 0 -24 16t-8 52q0 19 2 32t6 21.5t10 12t14 3.5h127v85q0 93 18 159.5t54 109.5t89.5 63.5t124.5 20.5q42 0 76 -7t49.5 -14t21.5 -13t10 -15.5t5.5 -23t1.5 -32.5q0 -32 -5 -46.5t-18 -14.5q-8 0 -18.5 4.5t-26.5 10t-36 10t-46 4.5
q-74 0 -104 -51t-30 -163v-87h404v97q0 93 18.5 159.5t54.5 109.5t89.5 63.5t122.5 20.5q42 0 76.5 -7.5t49 -14t21 -12.5t10 -15.5t5 -23t1.5 -32.5q0 -32 -5 -46t-18 -14q-7 0 -17.5 4t-26 9.5t-36 10t-45.5 4.5q-73 0 -103.5 -51t-30.5 -163v-99h519q26 0 39 -13.5
t13 -37.5v-875z" />
    <glyph glyph-name="f_j.liga" unicode="fj" horiz-adv-x="1084" 
d="M950 1228q0 -28 -4.5 -47t-15.5 -30.5t-30.5 -16.5t-49.5 -5q-29 0 -48.5 5t-31 16.5t-16.5 30.5t-5 47t5 46.5t16.5 31t31 17t48.5 4.5q30 0 49.5 -4.5t30.5 -17t15.5 -31t4.5 -46.5zM932 -28q0 -92 -12.5 -150t-43.5 -99.5t-83 -64.5t-131 -23q-20 0 -40.5 2t-38.5 6
t-32 10t-19.5 10.5t-8 10t-4 13.5t-2.5 16t-1 24q0 18 2 31.5t5 21.5t8 11.5t11 3.5q9 0 21.5 -4.5t33 -9.5t51.5 -5q29 0 51.5 9.5t37 32t22 59t7.5 109.5v828h-404v-789q0 -8 -4 -13.5t-13.5 -9.5t-25.5 -6t-40 -2t-40 2t-25.5 6t-13.5 9.5t-4 13.5v789h-127q-16 0 -24 16
t-8 52q0 19 2 32t6 21.5t10 12t14 3.5h127v97q0 93 18 159.5t53.5 109.5t88 63.5t120.5 20.5q22 0 44 -2t40 -6t31.5 -8.5t18.5 -9.5t8 -10.5t5 -13.5t3 -20t1 -29q0 -32 -5 -46t-17 -14q-8 0 -16.5 3.5t-21.5 7.5t-31.5 7.5t-46.5 3.5q-69 0 -98 -51t-29 -163v-99h519
q26 0 38.5 -13.5t12.5 -37.5v-928z" />
    <glyph glyph-name="f_jcircumflex.liga" unicode="f&#x135;" horiz-adv-x="1084" 
d="M932 -48q0 -72 -12.5 -130t-43.5 -99.5t-83 -64.5t-131 -23q-20 0 -40.5 2t-38.5 6t-32 10t-19.5 10.5t-8 10t-4 13.5t-2.5 17t-1 23q0 18 2 31.5t5 21.5t8 11.5t11 3.5q9 0 25.5 -6t35.5 -9.5t45 -3.5q29 0 51.5 9.5t37 32t22 59t7.5 89.5v848h-404v-789q0 -8 -4 -13.5
t-13.5 -9.5t-25.5 -6t-40 -2t-40 2t-25.5 6t-13.5 9.5t-4 13.5v789h-127q-16 0 -24 16t-8 52q0 19 2 32t6 21.5t10 12t14 3.5h127v112q0 87 18 150.5t52.5 104.5t85 61.5t115.5 20.5q29 0 57.5 -4.5t43.5 -10t21.5 -12t10 -15.5t5 -22.5t1.5 -32.5q0 -31 -5 -45t-18 -14
q-7 0 -16 3t-21.5 7t-29 7.5t-38.5 3.5q-61 0 -88.5 -48.5t-27.5 -149.5v-116h519q26 0 38.5 -13.5t12.5 -37.5v-948zM743 1118q-5 -9 -11 -14.5t-14 -9t-21 -4.5t-32 -1q-24 0 -37.5 3t-17.5 10t0 18.5t15 27.5l153 226q6 8 12 12.5t16 7.5t25.5 4t37.5 1q21 0 35 -1
t24 -4.5t16.5 -8.5t11.5 -11l156 -229q10 -16 13.5 -26.5t-1.5 -17t-19 -9.5t-39 -3q-20 0 -33 1t-21 4.5t-13 9t-11 14.5l-122 181z" />
    <glyph glyph-name="f_f_j.liga" unicode="ffj" horiz-adv-x="1654" 
d="M1521 1228q0 -28 -4.5 -47t-16 -30.5t-31 -16.5t-49.5 -5q-29 0 -48.5 5t-31 16.5t-16.5 30.5t-5 47t5 46.5t16.5 31t31 17t48.5 4.5q30 0 49.5 -4.5t31 -17t16 -31t4.5 -46.5zM766 1048q0 93 18.5 159.5t53.5 109.5t87.5 63.5t120.5 20.5q24 0 46 -2t40 -6t30.5 -8.5
t17.5 -9.5t8 -10.5t5 -13.5t3 -20t1 -29q0 -32 -5 -46t-18 -14q-7 0 -15.5 3.5t-21 7.5t-31 7.5t-46.5 3.5q-69 0 -98.5 -51t-29.5 -163v-99h519q26 0 39 -13.5t13 -37.5v-948q0 -72 -12.5 -130t-43.5 -99.5t-83 -64.5t-131 -23q-22 0 -42 2t-38 6t-32 10t-19.5 10.5t-8 10
t-4 13t-2.5 16.5t-1 24q0 18 1.5 31.5t5 21.5t8.5 11.5t11 3.5q9 0 16.5 -3t19 -6.5t28 -6.5t42.5 -3q29 0 51.5 9.5t37.5 32t22.5 59t7.5 89.5v848h-405v-789q0 -8 -4 -13.5t-13.5 -9.5t-25.5 -6t-40 -2t-40 2t-25.5 6t-13.5 9.5t-4 13.5v789h-404v-789q0 -8 -4 -13.5
t-13.5 -9.5t-25.5 -6t-40 -2t-40 2t-25.5 6t-13.5 9.5t-4 13.5v789h-127q-16 0 -24 16t-8 52q0 19 2 32t6 21.5t10 12t14 3.5h127v85q0 93 18 159.5t54 109.5t89.5 63.5t124.5 20.5q44 0 77 -7.5t48.5 -14t21.5 -12.5t10 -15.5t5.5 -23t1.5 -32.5q0 -32 -5 -46.5t-18 -14.5
q-8 0 -18.5 4.5t-26.5 10t-36 10t-46 4.5q-74 0 -104 -51t-30 -163v-87h404v97z" />
    <glyph glyph-name="f_k.liga" unicode="fk" horiz-adv-x="1545" 
d="M849 1393q24 0 40 -2t25.5 -6t13.5 -10t4 -14v-814l341 374q7 10 16 16.5t21 11t29 6t42 1.5q24 0 41 -1.5t28 -5t16 -9t5 -14.5q0 -12 -7 -24t-22 -28l-327 -326l368 -475q12 -17 17 -27.5t5 -19.5q0 -8 -4 -14t-13.5 -10t-26 -6t-43.5 -2t-44.5 1.5t-29.5 5t-19.5 10
t-13.5 15.5l-379 498v-499q0 -8 -4 -13.5t-13.5 -9.5t-25.5 -6t-40 -2t-40 2t-25.5 6t-13.5 9.5t-4 13.5v1221q-2 -3 -6 -4.5t-11 -1.5q-11 0 -35 5.5t-50.5 9.5t-50.5 6t-46 2q-62 0 -102 -12.5t-63 -38.5t-31.5 -67t-8.5 -96v-98h185q8 0 14 -3.5t10.5 -12t6.5 -21.5
t2 -32q0 -36 -8.5 -52t-24.5 -16h-185v-789q0 -8 -4 -13.5t-13.5 -9.5t-25.5 -6t-40 -2t-40 2t-25.5 6t-13.5 9.5t-4 13.5v789h-127q-16 0 -24 16t-8 52q0 19 2 32t6 21.5t10 12t14 3.5h127v96q0 93 21 160t64.5 109.5t110.5 63t160 20.5q26 0 54 -2t54.5 -5.5t46 -7t31 -7
t18.5 -8.5t10 -13q1 10 4.5 16t12 11t24.5 7t42 2z" />
    <glyph glyph-name="f_f_k.liga" unicode="ffk" horiz-adv-x="2115" 
d="M2076 26q0 -8 -4 -14t-13.5 -10t-26.5 -6t-43 -2q-27 0 -44.5 1.5t-29.5 5t-19.5 10t-13.5 15.5l-379 498v-499q0 -8 -4 -13.5t-13.5 -9.5t-25.5 -6t-41 -2q-23 0 -39.5 2t-26 6t-13 9.5t-3.5 13.5v1222q-2 -3 -6 -4.5t-11 -1.5q-12 0 -35.5 5.5t-50 9.5t-50.5 6t-46 2
q-62 0 -102 -12.5t-63 -39t-32 -67t-9 -95.5v-99h186q8 0 13.5 -3.5t10 -12t6.5 -21.5t2 -32q0 -36 -8.5 -52t-23.5 -16h-186v-789q0 -8 -4 -13.5t-13.5 -9.5t-25.5 -6t-40 -2t-40 2t-25.5 6t-13.5 9.5t-4 13.5v789h-404v-789q0 -8 -4 -13.5t-13.5 -9.5t-25.5 -6t-40 -2
t-40 2t-25.5 6t-13.5 9.5t-4 13.5v789h-127q-16 0 -24 16t-8 52q0 19 2 32t6 21.5t10 12t14 3.5h127v85q0 93 18 159.5t54 109.5t89.5 63.5t124.5 20.5q44 0 77 -7.5t48.5 -14t21.5 -12.5t10 -15.5t5.5 -23t1.5 -32.5q0 -32 -5 -46.5t-18 -14.5q-8 0 -18.5 4.5t-26.5 10
t-36 10t-46 4.5q-74 0 -104 -51t-30 -163v-87h404v96q0 93 21 160t64.5 110t110.5 63.5t160 20.5q27 0 55 -2t54.5 -5.5t46 -7t30.5 -7t18.5 -8.5t10.5 -14q0 10 3.5 16t12.5 11t25 7t41 2t41 -2t25.5 -6t13.5 -10t4 -14v-814l340 374q7 10 16 16.5t21.5 11t29.5 6t42 1.5
q24 0 41 -1.5t27.5 -5t15.5 -9t5 -14.5q0 -12 -7 -24t-21 -28l-327 -326l367 -475q12 -17 17.5 -27.5t5.5 -19.5z" />
    <glyph glyph-name="f_lacute.liga" unicode="f&#x13a;" horiz-adv-x="1084" 
d="M932 25q0 -8 -4 -13.5t-13.5 -9.5t-25.5 -6t-40 -2t-40 2t-25.5 6t-13.5 9.5t-4 13.5v1221q-2 -3 -6 -4.5t-11 -1.5q-11 0 -35 5.5t-50.5 9.5t-50.5 6t-46 2q-62 0 -102 -12.5t-63 -38.5t-31.5 -67t-8.5 -96v-98h185q8 0 14 -3.5t10.5 -12t6.5 -21.5t2 -32
q0 -36 -8.5 -52t-24.5 -16h-185v-789q0 -8 -4 -13.5t-13.5 -9.5t-25.5 -6t-40 -2t-40 2t-25.5 6t-13.5 9.5t-4 13.5v789h-127q-16 0 -24 16t-8 52q0 19 2 32t6 21.5t10 12t14 3.5h127v96q0 93 21 160t64.5 109.5t110.5 63t160 20.5q26 0 54 -2t54.5 -5.5t46 -7t31 -7
t18.5 -8.5t10 -13q1 10 4.5 16t12 11t24.5 7t42 2q24 0 40 -2t25.5 -6t13.5 -10t4 -14v-1336zM988 1720q11 13 21.5 20t23.5 11t31 5.5t43 1.5q30 0 47 -4.5t24 -11.5t4.5 -16t-11.5 -19l-227 -212q-10 -10 -18.5 -15.5t-19.5 -9t-25.5 -5t-35.5 -1.5q-23 0 -36 2.5t-18 8
t-3 13.5t11 19zM655 1363z" />
    <glyph glyph-name="f_lcaron.liga" unicode="f&#x13e;" horiz-adv-x="1155" 
d="M932 25q0 -8 -4 -13.5t-13.5 -9.5t-25.5 -6t-40 -2t-40 2t-25.5 6t-13.5 9.5t-4 13.5v1221q-2 -3 -6 -4.5t-11 -1.5q-11 0 -35 5.5t-50.5 9.5t-50.5 6t-46 2q-62 0 -102 -12.5t-63 -38.5t-31.5 -67t-8.5 -96v-98h185q8 0 14 -3.5t10.5 -12t6.5 -21.5t2 -32
q0 -36 -8.5 -52t-24.5 -16h-185v-789q0 -8 -4 -13.5t-13.5 -9.5t-25.5 -6t-40 -2t-40 2t-25.5 6t-13.5 9.5t-4 13.5v789h-127q-16 0 -24 16t-8 52q0 19 2 32t6 21.5t10 12t14 3.5h127v96q0 93 21 160t64.5 109.5t110.5 63t160 20.5q26 0 54 -2t54.5 -5.5t46 -7t31 -7
t18.5 -8.5t10 -13q1 10 4.5 16t12 11t24.5 7t42 2q24 0 40 -2t25.5 -6t13.5 -10t4 -14v-1336zM1092 1361q3 10 9 17t16 11t26.5 6t39.5 2t35.5 -2t19 -6.5t7 -11.5t-2.5 -17l-125 -312q-2 -7 -6.5 -11.5t-13 -7t-22 -3.5t-34.5 -1q-15 0 -24 2t-13 6t-5 9.5t1 13.5zM866 997
z" />
    <glyph glyph-name="f_uni013C.liga" unicode="f&#x13c;" horiz-adv-x="1084" 
d="M932 25q0 -8 -4 -13.5t-13.5 -9.5t-25.5 -6t-40 -2t-40 2t-25.5 6t-13.5 9.5t-4 13.5v1221q-2 -3 -6 -4.5t-11 -1.5q-11 0 -35 5.5t-50.5 9.5t-50.5 6t-46 2q-62 0 -102 -12.5t-63 -38.5t-31.5 -67t-8.5 -96v-98h185q8 0 14 -3.5t10.5 -12t6.5 -21.5t2 -32
q0 -36 -8.5 -52t-24.5 -16h-185v-789q0 -8 -4 -13.5t-13.5 -9.5t-25.5 -6t-40 -2t-40 2t-25.5 6t-13.5 9.5t-4 13.5v789h-127q-16 0 -24 16t-8 52q0 19 2 32t6 21.5t10 12t14 3.5h127v96q0 93 21 160t64.5 109.5t110.5 63t160 20.5q26 0 54 -2t54.5 -5.5t46 -7t31 -7
t18.5 -8.5t10 -13q1 10 4.5 16t12 11t24.5 7t42 2q24 0 40 -2t25.5 -6t13.5 -10t4 -14v-1336zM759 -121q3 11 9 18.5t17 11.5t28.5 6t44.5 2q26 0 41 -3.5t21.5 -10t6 -15t-5.5 -19.5l-97 -203q-4 -10 -10 -16t-15.5 -9t-23.5 -4.5t-34 -1.5q-21 0 -32 2.5t-16 7.5t-4 13
t4 19z" />
    <glyph glyph-name="f_t.liga" unicode="ft" horiz-adv-x="1261" 
d="M362 814v-789q0 -8 -4 -13.5t-13.5 -9.5t-25.5 -6t-40 -2t-40 2t-25.5 6t-13.5 9.5t-4 13.5v789h-127q-16 0 -24 16t-8 52q0 19 2 32t6 21.5t10 12t14 3.5h127v93q0 94 17.5 161.5t53 110.5t90 63.5t128.5 20.5q37 0 72 -7.5t50 -14t21 -12.5t9.5 -15.5t5 -23t1.5 -32.5
t-1.5 -30.5t-4.5 -18.5t-7 -9.5t-9 -2.5q-8 0 -18 4.5t-25 10t-35.5 10t-47.5 4.5q-37 0 -62.5 -12t-41.5 -37.5t-23.5 -66t-7.5 -98.5v-98h406v214q0 7 4 13t13 10.5t25 6.5t41 2q24 0 40 -2t25 -6.5t13 -10.5t4 -13v-214h230q8 0 14.5 -3.5t10.5 -12t6.5 -21.5t2.5 -32
q0 -36 -9 -52t-24 -16h-231v-502q0 -93 27 -140.5t99 -47.5q22 0 40.5 4.5t32.5 9.5t24.5 9.5t17.5 4.5q6 0 10 -2.5t6.5 -9.5t4.5 -19t2 -30q0 -29 -4.5 -46t-12.5 -25t-23 -15t-35.5 -11.5t-44 -7.5t-45.5 -3q-71 0 -121 18.5t-82 56t-46.5 95t-14.5 135.5v526h-405z" />
    <glyph glyph-name="f_uni021B.liga" unicode="f&#x21b;" horiz-adv-x="1261" 
d="M362 814v-789q0 -8 -4 -13.5t-13.5 -9.5t-25.5 -6t-40 -2t-40 2t-25.5 6t-13.5 9.5t-4 13.5v789h-127q-16 0 -24 16t-8 52q0 19 2 32t6 21.5t10 12t14 3.5h127v93q0 94 17.5 161.5t53 110.5t90 63.5t128.5 20.5q37 0 72 -7.5t50 -14t21 -12.5t9.5 -15.5t5 -23t1.5 -32.5
t-1.5 -30.5t-4.5 -18.5t-7 -9.5t-9 -2.5q-8 0 -18 4.5t-25 10t-35.5 10t-47.5 4.5q-37 0 -62.5 -12t-41.5 -37.5t-23.5 -66t-7.5 -98.5v-98h406v214q0 7 4 13t13 10.5t25 6.5t41 2q24 0 40 -2t25 -6.5t13 -10.5t4 -13v-214h230q8 0 14.5 -3.5t10.5 -12t6.5 -21.5t2.5 -32
q0 -36 -9 -52t-24 -16h-231v-502q0 -93 27 -140.5t99 -47.5q22 0 40.5 4.5t32.5 9.5t24.5 9.5t17.5 4.5q6 0 10 -2.5t6.5 -9.5t4.5 -19t2 -30q0 -29 -4.5 -46t-12.5 -25t-23 -15t-35.5 -11.5t-44 -7.5t-45.5 -3q-71 0 -121 18.5t-82 56t-46.5 95t-14.5 135.5v526h-405z
M895 -121q3 11 9 18.5t17 11.5t28.5 6t44.5 2q26 0 41 -3.5t21.5 -10t6 -15t-5.5 -19.5l-97 -203q-4 -10 -10 -16t-15.5 -9t-23.5 -4.5t-34 -1.5q-21 0 -32 2.5t-16 7.5t-4 13t4 19z" />
    <glyph glyph-name="f_tcaron.liga" unicode="f&#x165;" horiz-adv-x="1299" 
d="M362 814v-789q0 -8 -4 -13.5t-13.5 -9.5t-25.5 -6t-40 -2t-40 2t-25.5 6t-13.5 9.5t-4 13.5v789h-127q-16 0 -24 16t-8 52q0 19 2 32t6 21.5t10 12t14 3.5h127v93q0 94 17.5 161.5t53 110.5t90 63.5t128.5 20.5q37 0 72 -7.5t50 -14t21 -12.5t9.5 -15.5t5 -23t1.5 -32.5
t-1.5 -30.5t-4.5 -18.5t-7 -9.5t-9 -2.5q-8 0 -18 4.5t-25 10t-35.5 10t-47.5 4.5q-37 0 -62.5 -12t-41.5 -37.5t-23.5 -66t-7.5 -98.5v-98h406v214q0 7 4 13t13 10.5t25 6.5t41 2q24 0 40 -2t25 -6.5t13 -10.5t4 -13v-214h230q8 0 14.5 -3.5t10.5 -12t6.5 -21.5t2.5 -32
q0 -36 -9 -52t-24 -16h-231v-502q0 -93 27 -140.5t99 -47.5q22 0 40.5 4.5t32.5 9.5t24.5 9.5t17.5 4.5q6 0 10 -2.5t6.5 -9.5t4.5 -19t2 -30q0 -29 -4.5 -46t-12.5 -25t-23 -15t-35.5 -11.5t-44 -7.5t-45.5 -3q-71 0 -121 18.5t-82 56t-46.5 95t-14.5 135.5v526h-405z
M1149 1439q3 10 9 17t16 11t26.5 6t39.5 2t35.5 -2t19 -6.5t7 -11.5t-2.5 -17l-125 -312q-2 -7 -6.5 -11.5t-13 -7t-22 -3.5t-34.5 -1q-15 0 -24 2t-13 6t-5 9.5t1 13.5zM923 1075z" />
    <glyph glyph-name="f_f_t.liga" unicode="fft" horiz-adv-x="1832" 
d="M1767 91q0 -29 -4.5 -46t-12.5 -25t-23.5 -15t-36 -11.5t-44 -7.5t-45.5 -3q-70 0 -120 18.5t-82 56t-47 95t-15 135.5v526h-405v-789q0 -8 -4 -13.5t-13.5 -9.5t-25.5 -6t-40 -2t-40 2t-25.5 6t-13.5 9.5t-4 13.5v789h-404v-789q0 -8 -4 -13.5t-13.5 -9.5t-25.5 -6
t-40 -2t-40 2t-25.5 6t-13.5 9.5t-4 13.5v789h-127q-16 0 -24 16t-8 52q0 19 2 32t6 21.5t10 12t14 3.5h127v82q0 94 17.5 161.5t53.5 110.5t90.5 63.5t128.5 20.5q39 0 73 -7.5t49 -14t21 -12.5t10 -15.5t5.5 -23t1.5 -32.5t-2 -30.5t-4.5 -18.5t-6.5 -9.5t-10 -2.5
q-7 0 -17.5 4.5t-25.5 10t-35.5 10t-47.5 4.5q-37 0 -63 -12t-42 -37.5t-23 -66t-7 -98.5v-87h404v94q0 93 18 160.5t53.5 111t90 64t128.5 20.5q35 0 68 -7t50.5 -14t24 -13t10 -15.5t5 -23t1.5 -32.5t-1.5 -30.5t-4.5 -18.5t-7.5 -9t-10.5 -2q-7 0 -17 4t-24.5 9.5t-35 10
t-47.5 4.5q-37 0 -63 -12t-42 -37.5t-23.5 -66t-7.5 -98.5v-99h406v214q0 7 3.5 13t13.5 10.5t26 6.5t40 2t40 -2t25.5 -6.5t13.5 -10.5t4 -13v-214h230q8 0 14 -3.5t10.5 -12t7 -21.5t2.5 -32q0 -36 -9 -52t-25 -16h-230v-502q0 -93 27 -140.5t99 -47.5q22 0 40.5 4.5
t32.5 9.5t24 9.5t17 4.5q6 0 10 -2.5t7 -9.5t5 -19t2 -30z" />
    <glyph glyph-name="t_f.liga" unicode="tf" horiz-adv-x="1254" 
d="M826 951v93q0 94 17.5 161.5t53.5 110.5t90.5 63.5t127.5 20.5q34 0 67.5 -6.5t51.5 -14t24 -13.5t10 -15.5t5.5 -23t1.5 -32.5t-1.5 -30.5t-4.5 -18.5t-7 -9.5t-9 -2.5q-8 0 -29.5 9t-45.5 14.5t-51 5.5q-37 0 -63 -12t-42 -37.5t-23.5 -66t-7.5 -98.5v-98h201
q8 0 14.5 -3.5t10.5 -12t6.5 -21.5t2.5 -32q0 -36 -9 -52t-24 -16h-202v-789q0 -8 -4 -13.5t-13 -9.5t-25 -6t-41 -2q-24 0 -40 2t-25.5 6t-13 9.5t-3.5 13.5v789h-469v-502q0 -93 27.5 -140.5t98.5 -47.5q23 0 41 4.5t32 9.5t24 9.5t18 4.5q5 0 9.5 -2.5t7 -9.5t4.5 -19
t2 -30q0 -29 -4 -45.5t-12 -25t-24 -15.5t-36.5 -11.5t-43.5 -7.5t-46 -3q-70 0 -120 18.5t-82 56t-46.5 95t-14.5 135.5v526h-126q-15 0 -24 16t-9 52q0 19 2.5 32t6.5 21.5t10.5 12t14.5 3.5h125v214q0 7 3.5 13t13 10.5t25.5 6.5t40 2q25 0 41 -2t25 -6.5t13 -10.5t4 -13
v-214h469z" />
    <glyph glyph-name="t_i.liga" unicode="ti" horiz-adv-x="1141" 
d="M936 951q30 0 41 -13.5t11 -39.5v-873q0 -8 -4 -13.5t-13.5 -9.5t-25.5 -6t-39 -2q-25 0 -41 2t-25.5 6t-13.5 9.5t-4 13.5v789h-465v-502q0 -93 27.5 -140.5t98.5 -47.5q23 0 41 4.5t32 9.5t24 9.5t18 4.5q5 0 9.5 -2.5t7 -9.5t4.5 -19t2 -30q0 -29 -4 -45.5t-12 -25
t-24 -15.5t-36.5 -11.5t-43.5 -7.5t-46 -3q-70 0 -120 18.5t-82 56t-46.5 95t-14.5 135.5v526h-126q-15 0 -24 16t-9 52q0 19 2.5 32t6.5 21.5t10.5 12t14.5 3.5h125v214q0 7 3.5 13t13 10.5t25.5 6.5t40 2q25 0 41 -2t25 -6.5t13 -10.5t4 -13v-214h579zM1007 1229
q0 -58 -22 -79t-81 -21q-58 0 -79.5 20.5t-21.5 77.5q0 58 22 79t81 21q58 0 79.5 -20.5t21.5 -77.5zM670 951z" />
    <glyph glyph-name="t_igrave.liga" unicode="t&#xec;" horiz-adv-x="1141" 
d="M936 951q30 0 41 -13.5t11 -39.5v-873q0 -8 -4 -13.5t-13.5 -9.5t-25.5 -6t-39 -2q-25 0 -41 2t-25.5 6t-13.5 9.5t-4 13.5v789h-465v-502q0 -93 27.5 -140.5t98.5 -47.5q23 0 41 4.5t32 9.5t24 9.5t18 4.5q5 0 9.5 -2.5t7 -9.5t4.5 -19t2 -30q0 -29 -4 -45.5t-12 -25
t-24 -15.5t-36.5 -11.5t-43.5 -7.5t-46 -3q-70 0 -120 18.5t-82 56t-46.5 95t-14.5 135.5v526h-126q-15 0 -24 16t-9 52q0 19 2.5 32t6.5 21.5t10.5 12t14.5 3.5h125v214q0 7 3.5 13t13 10.5t25.5 6.5t40 2q25 0 41 -2t25 -6.5t13 -10.5t4 -13v-214h579zM962 1134
q7 -11 9 -19t-3.5 -13t-18 -8t-34.5 -3q-20 0 -33 1.5t-22.5 5t-16.5 9.5t-14 16l-181 233q-8 9 -9 17.5t6 15t24.5 10t45.5 3.5q24 0 40.5 -2t27.5 -6t19 -11t16 -18zM507 951z" />
    <glyph glyph-name="t_iacute.liga" unicode="t&#xed;" horiz-adv-x="1141" 
d="M936 951q30 0 41 -13.5t11 -39.5v-873q0 -8 -4 -13.5t-13.5 -9.5t-25.5 -6t-39 -2q-25 0 -41 2t-25.5 6t-13.5 9.5t-4 13.5v789h-465v-502q0 -93 27.5 -140.5t98.5 -47.5q23 0 41 4.5t32 9.5t24 9.5t18 4.5q5 0 9.5 -2.5t7 -9.5t4.5 -19t2 -30q0 -29 -4 -45.5t-12 -25
t-24 -15.5t-36.5 -11.5t-43.5 -7.5t-46 -3q-70 0 -120 18.5t-82 56t-46.5 95t-14.5 135.5v526h-126q-15 0 -24 16t-9 52q0 19 2.5 32t6.5 21.5t10.5 12t14.5 3.5h125v214q0 7 3.5 13t13 10.5t25.5 6.5t40 2q25 0 41 -2t25 -6.5t13 -10.5t4 -13v-214h579zM974 1365
q6 11 14 18t19.5 11t28.5 6t41 2q28 0 45.5 -3.5t24.5 -10t6 -15t-9 -17.5l-181 -233q-8 -10 -14.5 -16t-15 -9.5t-22 -5t-33.5 -1.5q-22 0 -35 3t-18.5 8t-4 13t8.5 19zM688 951z" />
    <glyph glyph-name="t_icircumflex.liga" unicode="t&#xee;" horiz-adv-x="1141" 
d="M936 951q30 0 41 -13.5t11 -39.5v-873q0 -8 -4 -13.5t-13.5 -9.5t-25.5 -6t-39 -2q-25 0 -41 2t-25.5 6t-13.5 9.5t-4 13.5v789h-465v-502q0 -93 27.5 -140.5t98.5 -47.5q23 0 41 4.5t32 9.5t24 9.5t18 4.5q5 0 9.5 -2.5t7 -9.5t4.5 -19t2 -30q0 -29 -4 -45.5t-12 -25
t-24 -15.5t-36.5 -11.5t-43.5 -7.5t-46 -3q-70 0 -120 18.5t-82 56t-46.5 95t-14.5 135.5v526h-126q-15 0 -24 16t-9 52q0 19 2.5 32t6.5 21.5t10.5 12t14.5 3.5h125v214q0 7 3.5 13t13 10.5t25.5 6.5t40 2q25 0 41 -2t25 -6.5t13 -10.5t4 -13v-214h579zM764 1121
q-6 -10 -12 -15.5t-14.5 -8.5t-21 -4.5t-31.5 -1.5q-27 0 -41.5 3.5t-19.5 10t-1 17t16 25.5l165 229q5 8 12 12.5t17.5 7.5t26 4.5t37.5 1.5q21 0 35 -1.5t24 -5t16.5 -8t11.5 -11.5l165 -229q11 -15 15 -25.5t-0.5 -17t-19.5 -10t-41 -3.5q-21 0 -33.5 1.5t-20.5 4.5
t-13 9t-12 15l-130 180zM490 951z" />
    <glyph glyph-name="t_idieresis.liga" unicode="t&#xef;" horiz-adv-x="1141" 
d="M936 951q30 0 41 -13.5t11 -39.5v-873q0 -8 -4 -13.5t-13.5 -9.5t-25.5 -6t-39 -2q-25 0 -41 2t-25.5 6t-13.5 9.5t-4 13.5v789h-465v-502q0 -93 27.5 -140.5t98.5 -47.5q23 0 41 4.5t32 9.5t24 9.5t18 4.5q5 0 9.5 -2.5t7 -9.5t4.5 -19t2 -30q0 -29 -4 -45.5t-12 -25
t-24 -15.5t-36.5 -11.5t-43.5 -7.5t-46 -3q-70 0 -120 18.5t-82 56t-46.5 95t-14.5 135.5v526h-126q-15 0 -24 16t-9 52q0 19 2.5 32t6.5 21.5t10.5 12t14.5 3.5h125v214q0 7 3.5 13t13 10.5t25.5 6.5t40 2q25 0 41 -2t25 -6.5t13 -10.5t4 -13v-214h579zM835 1217
q0 -54 -20 -74.5t-72 -20.5t-71 19.5t-19 72.5q0 55 19.5 75.5t71.5 20.5t71.5 -20t19.5 -73zM1146 1217q0 -54 -20 -74.5t-72 -20.5t-71 19.5t-19 72.5q0 55 19.5 75.5t70.5 20.5q53 0 72.5 -20t19.5 -73zM521 951z" />
    <glyph glyph-name="t_imacron.liga" unicode="t&#x12b;" horiz-adv-x="1141" 
d="M936 951q30 0 41 -13.5t11 -39.5v-873q0 -8 -4 -13.5t-13.5 -9.5t-25.5 -6t-39 -2q-25 0 -41 2t-25.5 6t-13.5 9.5t-4 13.5v789h-465v-502q0 -93 27.5 -140.5t98.5 -47.5q23 0 41 4.5t32 9.5t24 9.5t18 4.5q5 0 9.5 -2.5t7 -9.5t4.5 -19t2 -30q0 -29 -4 -45.5t-12 -25
t-24 -15.5t-36.5 -11.5t-43.5 -7.5t-46 -3q-70 0 -120 18.5t-82 56t-46.5 95t-14.5 135.5v526h-126q-15 0 -24 16t-9 52q0 19 2.5 32t6.5 21.5t10.5 12t14.5 3.5h125v214q0 7 3.5 13t13 10.5t25.5 6.5t40 2q25 0 41 -2t25 -6.5t13 -10.5t4 -13v-214h579zM1137 1293
q8 0 14 -3.5t9.5 -11t6 -20t2.5 -30.5q0 -17 -2.5 -28.5t-6 -19.5t-9.5 -12t-14 -4h-479q-8 0 -14.5 4t-10.5 12t-6 19.5t-2 28.5q0 18 2 30.5t6 20t10.5 11t14.5 3.5h479zM493 951z" />
    <glyph glyph-name="t_itilde.liga" unicode="t&#x129;" horiz-adv-x="1141" 
d="M936 951q30 0 41 -13.5t11 -39.5v-873q0 -8 -4 -13.5t-13.5 -9.5t-25.5 -6t-39 -2q-25 0 -41 2t-25.5 6t-13.5 9.5t-4 13.5v789h-465v-502q0 -93 27.5 -140.5t98.5 -47.5q23 0 41 4.5t32 9.5t24 9.5t18 4.5q5 0 9.5 -2.5t7 -9.5t4.5 -19t2 -30q0 -29 -4 -45.5t-12 -25
t-24 -15.5t-36.5 -11.5t-43.5 -7.5t-46 -3q-70 0 -120 18.5t-82 56t-46.5 95t-14.5 135.5v526h-126q-15 0 -24 16t-9 52q0 19 2.5 32t6.5 21.5t10.5 12t14.5 3.5h125v214q0 7 3.5 13t13 10.5t25.5 6.5t40 2q25 0 41 -2t25 -6.5t13 -10.5t4 -13v-214h579zM1216 1314
q0 -106 -52 -162t-141 -56q-37 0 -66 9.5t-53 24.5t-44 32t-39.5 32t-38.5 24.5t-41 9.5q-40 0 -56 -29t-16 -77q0 -7 -2 -12.5t-8.5 -8.5t-19 -4t-31.5 -1q-16 0 -27 1.5t-17.5 6t-9.5 13t-3 21.5q0 99 50 158t143 59q54 0 93 -20.5t70.5 -45t59 -45.5t59.5 -21
q36 0 54.5 26.5t18.5 78.5q0 16 10.5 21.5t45.5 5.5q37 0 49 -7.5t12 -33.5zM422 951z" />
    <glyph glyph-name="t_ibreve.liga" unicode="t&#x12d;" horiz-adv-x="1141" 
d="M936 951q30 0 41 -13.5t11 -39.5v-873q0 -8 -4 -13.5t-13.5 -9.5t-25.5 -6t-39 -2q-25 0 -41 2t-25.5 6t-13.5 9.5t-4 13.5v789h-465v-502q0 -93 27.5 -140.5t98.5 -47.5q23 0 41 4.5t32 9.5t24 9.5t18 4.5q5 0 9.5 -2.5t7 -9.5t4.5 -19t2 -30q0 -29 -4 -45.5t-12 -25
t-24 -15.5t-36.5 -11.5t-43.5 -7.5t-46 -3q-70 0 -120 18.5t-82 56t-46.5 95t-14.5 135.5v526h-126q-15 0 -24 16t-9 52q0 19 2.5 32t6.5 21.5t10.5 12t14.5 3.5h125v214q0 7 3.5 13t13 10.5t25.5 6.5t40 2q25 0 41 -2t25 -6.5t13 -10.5t4 -13v-214h579zM1039 1365
q0 15 12 22.5t46 7.5q19 0 30.5 -1.5t18 -5t9 -9t2.5 -12.5q0 -68 -16.5 -118.5t-49 -84.5t-81 -51t-112.5 -17q-68 0 -116.5 18t-80 52t-46 84t-14.5 114q0 16 12 23.5t46 7.5q18 0 29.5 -2t18 -5.5t9.5 -9t3 -13.5q3 -34 11.5 -62.5t25 -48.5t42 -30.5t60.5 -10.5
q30 0 55 8.5t43.5 27t29.5 47t13 69.5zM509 951z" />
    <glyph glyph-name="t_iogonek.liga" unicode="t&#x12f;" horiz-adv-x="1141" 
d="M933 951q32 0 43.5 -13.5t11.5 -43.5v-869q0 -12 -5.5 -29.5t-14.5 -27.5l-73 -73q-16 -16 -25 -28t-14 -22t-7 -18.5t-2 -17.5q0 -26 17.5 -39t55.5 -13h108q7 0 12.5 -2t9 -7t5 -14.5t1.5 -24.5t-1.5 -24.5t-5 -16t-10 -9.5t-16.5 -6q-32 -9 -66.5 -13.5t-76.5 -4.5
q-45 0 -80.5 10t-61 28.5t-38.5 46.5t-13 65q0 16 2.5 33.5t11 36.5t23.5 40.5t41 47.5l57 57v814h-465v-502q0 -93 27.5 -140.5t98.5 -47.5q23 0 41 4.5t32 9.5t24 9.5t18 4.5q5 0 9.5 -2.5t7 -9.5t4.5 -19t2 -30q0 -29 -4 -45.5t-12 -25t-24 -15.5t-36.5 -11.5t-43.5 -7.5
t-46 -3q-70 0 -120 18.5t-82 56t-46.5 95t-14.5 135.5v526h-126q-15 0 -24 16t-9 52q0 19 2.5 32t6.5 21.5t10.5 12t14.5 3.5h125v214q0 7 3.5 13t13 10.5t25.5 6.5t40 2q25 0 41 -2t25 -6.5t13 -10.5t4 -13v-214h576zM1006 1228q0 -28 -4.5 -47t-16 -30.5t-31 -16.5
t-48.5 -5q-30 0 -49.5 5t-31.5 16.5t-16.5 30.5t-4.5 47t4.5 46.5t16.5 31t31.5 17t49.5 4.5q29 0 48.5 -4.5t31 -17t16 -31t4.5 -46.5z" />
    <glyph glyph-name="t_dotlessi.liga" unicode="t&#x131;" horiz-adv-x="1141" 
d="M936 951q30 0 41 -13.5t11 -39.5v-873q0 -8 -4 -13.5t-13.5 -9.5t-25.5 -6t-39 -2q-25 0 -41 2t-25.5 6t-13.5 9.5t-4 13.5v789h-465v-502q0 -93 27.5 -140.5t98.5 -47.5q23 0 41 4.5t32 9.5t24 9.5t18 4.5q5 0 9.5 -2.5t7 -9.5t4.5 -19t2 -30q0 -29 -4 -45.5t-12 -25
t-24 -15.5t-36.5 -11.5t-43.5 -7.5t-46 -3q-70 0 -120 18.5t-82 56t-46.5 95t-14.5 135.5v526h-126q-15 0 -24 16t-9 52q0 19 2.5 32t6.5 21.5t10.5 12t14.5 3.5h125v214q0 7 3.5 13t13 10.5t25.5 6.5t40 2q25 0 41 -2t25 -6.5t13 -10.5t4 -13v-214h579z" />
    <glyph glyph-name="t_t.liga" unicode="tt" horiz-adv-x="1299" 
d="M1233 91q0 -29 -4 -45.5t-12.5 -24.5t-23.5 -15t-35.5 -12t-44 -8t-45.5 -3q-71 0 -121 18.5t-81.5 56t-46.5 95t-15 135.5v526h-447v-502q0 -93 27.5 -140.5t98.5 -47.5q23 0 41 4.5t32 9.5t24 9.5t18 4.5q5 0 9.5 -2.5t7 -9.5t4.5 -19t2 -30q0 -17 -1 -27t-2.5 -18.5
t-5 -15t-11 -13t-22.5 -13t-35 -11t-43 -7.5t-46 -3q-70 0 -120 18.5t-82 56t-46.5 95t-14.5 135.5v526h-126q-15 0 -24 16t-9 52q0 19 2.5 32t6.5 21.5t10.5 12t14.5 3.5h125v214q0 7 3.5 13t13 10.5t25.5 6.5t40 2q25 0 41 -2t25 -6.5t13 -10.5t4 -13v-214h447v257
q0 8 4 14t13.5 9.5t25.5 6t40 2.5t40 -2.5t25.5 -6t13.5 -9.5t4 -14v-257h230q8 0 14 -3.5t10.5 -12t6.5 -21.5t2 -32q0 -36 -9 -52t-23 -16h-231v-502q0 -93 27 -140.5t98 -47.5q22 0 40.5 4.5t32.5 9.5t24.5 9.5t17.5 4.5q6 0 10 -2.5t6.5 -9.5t4.5 -19t2 -30z" />
    <glyph glyph-name="t_t_f.liga" unicode="ttf" horiz-adv-x="1867" 
d="M1888 1295q0 -19 -2 -30.5t-4.5 -18.5t-7 -9.5t-10.5 -2.5q-7 0 -17.5 4.5t-25 10t-35 10t-47.5 4.5q-37 0 -63 -12t-41.5 -37.5t-23 -66t-7.5 -98.5v-98h201q8 0 13.5 -3.5t10 -12t7 -21.5t2.5 -32q0 -36 -9 -52t-24 -16h-201v-789q0 -8 -4 -13.5t-13 -9.5t-25.5 -6
t-40.5 -2t-40 2t-25.5 6t-13.5 9.5t-4 13.5v789h-468v-502q0 -93 27 -140.5t98 -47.5q22 0 40.5 4.5t32.5 9.5t24.5 9.5t17.5 4.5q6 0 10 -2.5t6.5 -9.5t4.5 -19t2 -30q0 -29 -3.5 -45.5t-12 -25t-25 -15.5t-36 -11.5t-43 -7.5t-45.5 -3q-71 0 -121 18.5t-81.5 56t-46.5 95
t-15 135.5v526h-447v-502q0 -93 27.5 -140.5t98.5 -47.5q23 0 41 4.5t32 9.5t24 9.5t18 4.5q5 0 9.5 -2.5t7 -9.5t4.5 -19t2 -30q0 -29 -4 -45.5t-12 -25t-24.5 -15.5t-36.5 -11.5t-43 -7.5t-46 -3q-70 0 -120 18.5t-82 56t-46.5 95t-14.5 135.5v526h-126q-15 0 -24 16
t-9 52q0 19 2.5 32t6.5 21.5t10.5 12t14.5 3.5h125v214q0 7 3.5 13t13 10.5t25.5 6.5t40 2q25 0 41 -2t25 -6.5t13 -10.5t4 -13v-214h447v257q0 8 4 14t13.5 9.5t25.5 6t40 2.5t40 -2.5t25.5 -6t13.5 -9.5t4 -14v-257h468v93q0 94 17.5 161.5t53.5 110.5t90.5 63.5
t128.5 20.5q37 0 69.5 -7t49.5 -14t23.5 -13t10.5 -15.5t5.5 -23t1.5 -32.5z" />
    <glyph glyph-name="t_t_i.liga" unicode="tti" horiz-adv-x="1753" 
d="M357 814v-502q0 -93 27.5 -140.5t98.5 -47.5q23 0 41 4.5t32 9.5t24 9.5t18 4.5q5 0 9.5 -2.5t7 -9.5t4.5 -19t2 -30q0 -29 -4 -46t-12.5 -25t-24 -15t-36 -11.5t-43.5 -7.5t-46 -3q-70 0 -120 18.5t-82 56t-46.5 95t-14.5 135.5v526h-126q-15 0 -24 16t-9 52
q0 19 2.5 32t6.5 21.5t10.5 12t14.5 3.5h125v214q0 7 3.5 13t13 10.5t25.5 6.5t40 2q25 0 41 -2t25 -6.5t13 -10.5t4 -13v-214h447v257q0 8 4 14t13.5 9.5t25.5 6t40 2.5t40 -2.5t25.5 -6t13.5 -9.5t4 -14v-257h579q29 0 40.5 -13.5t11.5 -39.5v-873q0 -8 -4 -13.5
t-13.5 -9.5t-25.5 -6t-41 -2q-23 0 -39 2t-26 6t-13.5 9.5t-3.5 13.5v789h-465v-502q0 -93 27 -140.5t98 -47.5q22 0 40.5 4.5t32.5 9.5t24.5 9.5t17.5 4.5q6 0 10 -2.5t6.5 -9.5t4.5 -19t2 -30q0 -29 -4 -46t-12.5 -25t-23.5 -15t-35.5 -11.5t-44 -7.5t-45.5 -3
q-71 0 -121 18.5t-81.5 56t-46.5 95t-15 135.5v526h-447zM1619 1229q0 -58 -22 -79t-81 -21q-58 0 -79.5 20.5t-21.5 77.5q0 58 22 79t81 21q58 0 79.5 -20.5t21.5 -77.5zM1282 951z" />
    <glyph glyph-name="t_t_igrave.liga" unicode="tt&#xec;" horiz-adv-x="1753" 
d="M357 814v-502q0 -93 27.5 -140.5t98.5 -47.5q23 0 41 4.5t32 9.5t24 9.5t18 4.5q5 0 9.5 -2.5t7 -9.5t4.5 -19t2 -30q0 -29 -4 -46t-12.5 -25t-24 -15t-36 -11.5t-43.5 -7.5t-46 -3q-70 0 -120 18.5t-82 56t-46.5 95t-14.5 135.5v526h-126q-15 0 -24 16t-9 52
q0 19 2.5 32t6.5 21.5t10.5 12t14.5 3.5h125v214q0 7 3.5 13t13 10.5t25.5 6.5t40 2q25 0 41 -2t25 -6.5t13 -10.5t4 -13v-214h447v257q0 8 4 14t13.5 9.5t25.5 6t40 2.5t40 -2.5t25.5 -6t13.5 -9.5t4 -14v-257h579q29 0 40.5 -13.5t11.5 -39.5v-873q0 -8 -4 -13.5
t-13.5 -9.5t-25.5 -6t-41 -2q-23 0 -39 2t-26 6t-13.5 9.5t-3.5 13.5v789h-465v-502q0 -93 27 -140.5t98 -47.5q22 0 40.5 4.5t32.5 9.5t24.5 9.5t17.5 4.5q6 0 10 -2.5t6.5 -9.5t4.5 -19t2 -30q0 -29 -4 -46t-12.5 -25t-23.5 -15t-35.5 -11.5t-44 -7.5t-45.5 -3
q-71 0 -121 18.5t-81.5 56t-46.5 95t-15 135.5v526h-447zM1575 1134q7 -11 9 -19t-3.5 -13t-18 -8t-34.5 -3q-20 0 -33 1.5t-22.5 5t-16.5 9.5t-14 16l-181 233q-8 9 -9 17.5t6 15t24.5 10t45.5 3.5q24 0 40.5 -2t27.5 -6t19 -11t16 -18zM1120 951z" />
    <glyph glyph-name="t_t_iacute.liga" unicode="tt&#xed;" horiz-adv-x="1753" 
d="M357 814v-502q0 -93 27.5 -140.5t98.5 -47.5q23 0 41 4.5t32 9.5t24 9.5t18 4.5q5 0 9.5 -2.5t7 -9.5t4.5 -19t2 -30q0 -29 -4 -46t-12.5 -25t-24 -15t-36 -11.5t-43.5 -7.5t-46 -3q-70 0 -120 18.5t-82 56t-46.5 95t-14.5 135.5v526h-126q-15 0 -24 16t-9 52
q0 19 2.5 32t6.5 21.5t10.5 12t14.5 3.5h125v214q0 7 3.5 13t13 10.5t25.5 6.5t40 2q25 0 41 -2t25 -6.5t13 -10.5t4 -13v-214h447v257q0 8 4 14t13.5 9.5t25.5 6t40 2.5t40 -2.5t25.5 -6t13.5 -9.5t4 -14v-257h579q29 0 40.5 -13.5t11.5 -39.5v-873q0 -8 -4 -13.5
t-13.5 -9.5t-25.5 -6t-41 -2q-23 0 -39 2t-26 6t-13.5 9.5t-3.5 13.5v789h-465v-502q0 -93 27 -140.5t98 -47.5q22 0 40.5 4.5t32.5 9.5t24.5 9.5t17.5 4.5q6 0 10 -2.5t6.5 -9.5t4.5 -19t2 -30q0 -29 -4 -46t-12.5 -25t-23.5 -15t-35.5 -11.5t-44 -7.5t-45.5 -3
q-71 0 -121 18.5t-81.5 56t-46.5 95t-15 135.5v526h-447zM1587 1365q6 11 14 18t19.5 11t28.5 6t41 2q28 0 45.5 -3.5t24.5 -10t6 -15t-9 -17.5l-181 -233q-8 -10 -14.5 -16t-15 -9.5t-22 -5t-33.5 -1.5q-22 0 -35 3t-18.5 8t-4 13t8.5 19zM1301 951z" />
    <glyph glyph-name="t_t_icircumflex.liga" unicode="tt&#xee;" horiz-adv-x="1753" 
d="M357 814v-502q0 -93 27.5 -140.5t98.5 -47.5q23 0 41 4.5t32 9.5t24 9.5t18 4.5q5 0 9.5 -2.5t7 -9.5t4.5 -19t2 -30q0 -29 -4 -46t-12.5 -25t-24 -15t-36 -11.5t-43.5 -7.5t-46 -3q-70 0 -120 18.5t-82 56t-46.5 95t-14.5 135.5v526h-126q-15 0 -24 16t-9 52
q0 19 2.5 32t6.5 21.5t10.5 12t14.5 3.5h125v214q0 7 3.5 13t13 10.5t25.5 6.5t40 2q25 0 41 -2t25 -6.5t13 -10.5t4 -13v-214h447v257q0 8 4 14t13.5 9.5t25.5 6t40 2.5t40 -2.5t25.5 -6t13.5 -9.5t4 -14v-257h579q29 0 40.5 -13.5t11.5 -39.5v-873q0 -8 -4 -13.5
t-13.5 -9.5t-25.5 -6t-41 -2q-23 0 -39 2t-26 6t-13.5 9.5t-3.5 13.5v789h-465v-502q0 -93 27 -140.5t98 -47.5q22 0 40.5 4.5t32.5 9.5t24.5 9.5t17.5 4.5q6 0 10 -2.5t6.5 -9.5t4.5 -19t2 -30q0 -29 -4 -46t-12.5 -25t-23.5 -15t-35.5 -11.5t-44 -7.5t-45.5 -3
q-71 0 -121 18.5t-81.5 56t-46.5 95t-15 135.5v526h-447zM1376 1121q-6 -10 -12 -15.5t-14.5 -8.5t-21 -4.5t-31.5 -1.5q-27 0 -41.5 3.5t-19.5 10t-1 17t16 25.5l165 229q5 8 12 12.5t17.5 7.5t26 4.5t37.5 1.5q21 0 35 -1.5t24 -5t16.5 -8t11.5 -11.5l165 -229
q11 -15 15 -25.5t-0.5 -17t-19.5 -10t-41 -3.5q-21 0 -33.5 1.5t-20.5 4.5t-13 9t-12 15l-130 180zM1102 951z" />
    <glyph glyph-name="t_t_idieresis.liga" unicode="tt&#xef;" horiz-adv-x="1753" 
d="M357 814v-502q0 -93 27.5 -140.5t98.5 -47.5q23 0 41 4.5t32 9.5t24 9.5t18 4.5q5 0 9.5 -2.5t7 -9.5t4.5 -19t2 -30q0 -29 -4 -46t-12.5 -25t-24 -15t-36 -11.5t-43.5 -7.5t-46 -3q-70 0 -120 18.5t-82 56t-46.5 95t-14.5 135.5v526h-126q-15 0 -24 16t-9 52
q0 19 2.5 32t6.5 21.5t10.5 12t14.5 3.5h125v214q0 7 3.5 13t13 10.5t25.5 6.5t40 2q25 0 41 -2t25 -6.5t13 -10.5t4 -13v-214h447v257q0 8 4 14t13.5 9.5t25.5 6t40 2.5t40 -2.5t25.5 -6t13.5 -9.5t4 -14v-257h579q29 0 40.5 -13.5t11.5 -39.5v-873q0 -8 -4 -13.5
t-13.5 -9.5t-25.5 -6t-41 -2q-23 0 -39 2t-26 6t-13.5 9.5t-3.5 13.5v789h-465v-502q0 -93 27 -140.5t98 -47.5q22 0 40.5 4.5t32.5 9.5t24.5 9.5t17.5 4.5q6 0 10 -2.5t6.5 -9.5t4.5 -19t2 -30q0 -29 -4 -46t-12.5 -25t-23.5 -15t-35.5 -11.5t-44 -7.5t-45.5 -3
q-71 0 -121 18.5t-81.5 56t-46.5 95t-15 135.5v526h-447zM1448 1217q0 -54 -20 -74.5t-72 -20.5t-71 19.5t-19 72.5q0 55 19.5 75.5t71.5 20.5t71.5 -20t19.5 -73zM1759 1217q0 -54 -20 -74.5t-72 -20.5t-71 19.5t-19 72.5q0 55 19.5 75.5t70.5 20.5q53 0 72.5 -20t19.5 -73
zM1134 951z" />
    <glyph glyph-name="t_t_imacron.liga" unicode="tt&#x12b;" horiz-adv-x="1753" 
d="M357 814v-502q0 -93 27.5 -140.5t98.5 -47.5q23 0 41 4.5t32 9.5t24 9.5t18 4.5q5 0 9.5 -2.5t7 -9.5t4.5 -19t2 -30q0 -29 -4 -46t-12.5 -25t-24 -15t-36 -11.5t-43.5 -7.5t-46 -3q-70 0 -120 18.5t-82 56t-46.5 95t-14.5 135.5v526h-126q-15 0 -24 16t-9 52
q0 19 2.5 32t6.5 21.5t10.5 12t14.5 3.5h125v214q0 7 3.5 13t13 10.5t25.5 6.5t40 2q25 0 41 -2t25 -6.5t13 -10.5t4 -13v-214h447v257q0 8 4 14t13.5 9.5t25.5 6t40 2.5t40 -2.5t25.5 -6t13.5 -9.5t4 -14v-257h579q29 0 40.5 -13.5t11.5 -39.5v-873q0 -8 -4 -13.5
t-13.5 -9.5t-25.5 -6t-41 -2q-23 0 -39 2t-26 6t-13.5 9.5t-3.5 13.5v789h-465v-502q0 -93 27 -140.5t98 -47.5q22 0 40.5 4.5t32.5 9.5t24.5 9.5t17.5 4.5q6 0 10 -2.5t6.5 -9.5t4.5 -19t2 -30q0 -29 -4 -46t-12.5 -25t-23.5 -15t-35.5 -11.5t-44 -7.5t-45.5 -3
q-71 0 -121 18.5t-81.5 56t-46.5 95t-15 135.5v526h-447zM1750 1293q8 0 14 -3.5t9.5 -11t6 -20t2.5 -30.5q0 -17 -2.5 -28.5t-6 -19.5t-9.5 -12t-14 -4h-479q-8 0 -14.5 4t-10.5 12t-6 19.5t-2 28.5q0 18 2 30.5t6 20t10.5 11t14.5 3.5h479zM1106 951z" />
    <glyph glyph-name="t_t_itilde.liga" unicode="tt&#x129;" horiz-adv-x="1753" 
d="M357 814v-502q0 -93 27.5 -140.5t98.5 -47.5q23 0 41 4.5t32 9.5t24 9.5t18 4.5q5 0 9.5 -2.5t7 -9.5t4.5 -19t2 -30q0 -29 -4 -46t-12.5 -25t-24 -15t-36 -11.5t-43.5 -7.5t-46 -3q-70 0 -120 18.5t-82 56t-46.5 95t-14.5 135.5v526h-126q-15 0 -24 16t-9 52
q0 19 2.5 32t6.5 21.5t10.5 12t14.5 3.5h125v214q0 7 3.5 13t13 10.5t25.5 6.5t40 2q25 0 41 -2t25 -6.5t13 -10.5t4 -13v-214h447v257q0 8 4 14t13.5 9.5t25.5 6t40 2.5t40 -2.5t25.5 -6t13.5 -9.5t4 -14v-257h579q29 0 40.5 -13.5t11.5 -39.5v-873q0 -8 -4 -13.5
t-13.5 -9.5t-25.5 -6t-41 -2q-23 0 -39 2t-26 6t-13.5 9.5t-3.5 13.5v789h-465v-502q0 -93 27 -140.5t98 -47.5q22 0 40.5 4.5t32.5 9.5t24.5 9.5t17.5 4.5q6 0 10 -2.5t6.5 -9.5t4.5 -19t2 -30q0 -29 -4 -46t-12.5 -25t-23.5 -15t-35.5 -11.5t-44 -7.5t-45.5 -3
q-71 0 -121 18.5t-81.5 56t-46.5 95t-15 135.5v526h-447zM1829 1314q0 -106 -52 -162t-141 -56q-37 0 -66 9.5t-53 24.5t-44 32t-39.5 32t-38.5 24.5t-41 9.5q-40 0 -56 -29t-16 -77q0 -7 -2 -12.5t-8.5 -8.5t-19 -4t-31.5 -1q-16 0 -27 1.5t-17.5 6t-9.5 13t-3 21.5
q0 99 50 158t143 59q54 0 93 -20.5t70.5 -45t59 -45.5t59.5 -21q36 0 54.5 26.5t18.5 78.5q0 16 10.5 21.5t45.5 5.5q37 0 49 -7.5t12 -33.5zM1035 951z" />
    <glyph glyph-name="t_t_ibreve.liga" unicode="tt&#x12d;" horiz-adv-x="1753" 
d="M357 814v-502q0 -93 27.5 -140.5t98.5 -47.5q23 0 41 4.5t32 9.5t24 9.5t18 4.5q5 0 9.5 -2.5t7 -9.5t4.5 -19t2 -30q0 -29 -4 -46t-12.5 -25t-24 -15t-36 -11.5t-43.5 -7.5t-46 -3q-70 0 -120 18.5t-82 56t-46.5 95t-14.5 135.5v526h-126q-15 0 -24 16t-9 52
q0 19 2.5 32t6.5 21.5t10.5 12t14.5 3.5h125v214q0 7 3.5 13t13 10.5t25.5 6.5t40 2q25 0 41 -2t25 -6.5t13 -10.5t4 -13v-214h447v257q0 8 4 14t13.5 9.5t25.5 6t40 2.5t40 -2.5t25.5 -6t13.5 -9.5t4 -14v-257h579q29 0 40.5 -13.5t11.5 -39.5v-873q0 -8 -4 -13.5
t-13.5 -9.5t-25.5 -6t-41 -2q-23 0 -39 2t-26 6t-13.5 9.5t-3.5 13.5v789h-465v-502q0 -93 27 -140.5t98 -47.5q22 0 40.5 4.5t32.5 9.5t24.5 9.5t17.5 4.5q6 0 10 -2.5t6.5 -9.5t4.5 -19t2 -30q0 -29 -4 -46t-12.5 -25t-23.5 -15t-35.5 -11.5t-44 -7.5t-45.5 -3
q-71 0 -121 18.5t-81.5 56t-46.5 95t-15 135.5v526h-447zM1652 1365q0 15 12 22.5t46 7.5q19 0 30.5 -1.5t18 -5t9 -9t2.5 -12.5q0 -68 -16.5 -118.5t-49 -84.5t-81 -51t-112.5 -17q-68 0 -116.5 18t-80 52t-46 84t-14.5 114q0 16 12 23.5t46 7.5q18 0 29.5 -2t18 -5.5
t9.5 -9t3 -13.5q3 -34 11.5 -62.5t25 -48.5t42 -30.5t60.5 -10.5q30 0 55 8.5t43.5 27t29.5 47t13 69.5zM1122 951z" />
    <glyph glyph-name="t_t_iogonek.liga" unicode="tt&#x12f;" horiz-adv-x="1753" 
d="M1669 -291q0 -15 -2 -24.5t-5.5 -16t-10 -9.5t-15.5 -6q-33 -9 -67 -13.5t-76 -4.5q-45 0 -81 10t-61 28.5t-38.5 46.5t-13.5 65q0 16 2.5 33.5t11 36.5t24 40.5t41.5 47.5l57 57v814h-465v-502q0 -93 27 -140.5t98 -47.5q22 0 40.5 4.5t32.5 9.5t24.5 9.5t17.5 4.5
q6 0 10 -2.5t6.5 -9.5t4.5 -19t2 -30q0 -29 -4 -46t-12.5 -25t-23.5 -15t-35.5 -11.5t-44 -7.5t-45.5 -3q-71 0 -121 18.5t-81.5 56t-46.5 95t-15 135.5v526h-447v-502q0 -93 27.5 -140.5t98.5 -47.5q23 0 41 4.5t32 9.5t24 9.5t18 4.5q5 0 9.5 -2.5t7 -9.5t4.5 -19t2 -30
q0 -29 -4 -46t-12.5 -25t-24 -15t-36 -11.5t-43.5 -7.5t-46 -3q-70 0 -120 18.5t-82 56t-46.5 95t-14.5 135.5v526h-126q-15 0 -24 16t-9 52q0 19 2.5 32t6.5 21.5t10.5 12t14.5 3.5h125v214q0 7 3.5 13t13 10.5t25.5 6.5t40 2q25 0 41 -2t25 -6.5t13 -10.5t4 -13v-214h447
v257q0 8 4 14t13.5 9.5t25.5 6t40 2.5t40 -2.5t25.5 -6t13.5 -9.5t4 -14v-257h579q29 0 40.5 -13.5t11.5 -39.5v-873q0 -12 -6 -29.5t-15 -27.5l-73 -73q-31 -30 -39.5 -49.5t-8.5 -36.5q0 -52 74 -52h107q7 0 13 -2t9 -7t5 -14.5t2 -24.5zM1619 1228q0 -28 -4.5 -47
t-16.5 -30.5t-31.5 -16.5t-49.5 -5q-29 0 -48.5 5t-31.5 16.5t-16.5 30.5t-4.5 47t4.5 46.5t16.5 31t31.5 17t48.5 4.5q30 0 49.5 -4.5t31.5 -17t16.5 -31t4.5 -46.5z" />
    <glyph glyph-name="t_t_dotlessi.liga" unicode="tt&#x131;" horiz-adv-x="1753" 
d="M357 814v-502q0 -93 27.5 -140.5t98.5 -47.5q23 0 41 4.5t32 9.5t24 9.5t18 4.5q5 0 9.5 -2.5t7 -9.5t4.5 -19t2 -30q0 -29 -4 -46t-12.5 -25t-24 -15t-36 -11.5t-43.5 -7.5t-46 -3q-70 0 -120 18.5t-82 56t-46.5 95t-14.5 135.5v526h-126q-15 0 -24 16t-9 52
q0 19 2.5 32t6.5 21.5t10.5 12t14.5 3.5h125v214q0 7 3.5 13t13 10.5t25.5 6.5t40 2q25 0 41 -2t25 -6.5t13 -10.5t4 -13v-214h447v257q0 8 4 14t13.5 9.5t25.5 6t40 2.5t40 -2.5t25.5 -6t13.5 -9.5t4 -14v-257h579q29 0 40.5 -13.5t11.5 -39.5v-873q0 -8 -4 -13.5
t-13.5 -9.5t-25.5 -6t-41 -2q-23 0 -39 2t-26 6t-13.5 9.5t-3.5 13.5v789h-465v-502q0 -93 27 -140.5t98 -47.5q22 0 40.5 4.5t32.5 9.5t24.5 9.5t17.5 4.5q6 0 10 -2.5t6.5 -9.5t4.5 -19t2 -30q0 -29 -4 -46t-12.5 -25t-23.5 -15t-35.5 -11.5t-44 -7.5t-45.5 -3
q-71 0 -121 18.5t-81.5 56t-46.5 95t-15 135.5v526h-447z" />
    <glyph glyph-name="f_uni1EC9.liga" unicode="f&#x1ec9;" horiz-adv-x="1084" 
d="M932 25q0 -8 -4 -13.5t-13.5 -9.5t-25.5 -6t-40 -2t-40 2t-25.5 6t-13.5 9.5t-4 13.5v789h-404v-789q0 -8 -4 -13.5t-13.5 -9.5t-25.5 -6t-40 -2t-40 2t-25.5 6t-13.5 9.5t-4 13.5v789h-127q-16 0 -24 16t-8 52q0 19 2 32t6 21.5t10 12t14 3.5h127v96q0 93 18 159.5
t54 109.5t89.5 63.5t124.5 20.5q39 0 72 -6.5t50 -14t23 -13.5t9.5 -15.5t5.5 -23t2 -32.5q0 -32 -5 -46t-18 -14q-7 0 -18 4t-26.5 9.5t-35.5 10t-45 4.5q-74 0 -104 -51t-30 -163v-98h519q26 0 38.5 -13.5t12.5 -37.5v-875zM1027 1349q0 -70 -36 -111t-96 -52l-2 -66
q-1 -15 -14 -22.5t-43 -7.5q-32 0 -45 7t-13 24l-2 96q-1 29 13.5 39t41.5 10h9q35 0 49 23t14 54q0 35 -17 57.5t-53 22.5q-23 0 -42 -8.5t-31 -14.5q-6 -3 -16 -9.5t-23 -6.5q-28 0 -28 57q0 9 0.5 15t4 11t10.5 9.5t20 12.5q19 9 49.5 17.5t64.5 8.5q48 0 83 -13.5
t57.5 -36t33.5 -52.5t11 -64zM663 951z" />
    <glyph glyph-name="f_uni1ECB.liga" unicode="f&#x1ecb;" horiz-adv-x="1084" 
d="M950 1228q0 -28 -4.5 -47t-15.5 -30.5t-30.5 -16.5t-49.5 -5q-29 0 -48.5 5t-31 16.5t-16.5 30.5t-5 47t5 46.5t16.5 31t31 17t48.5 4.5q30 0 49.5 -4.5t30.5 -17t15.5 -31t4.5 -46.5zM932 25q0 -8 -4 -13.5t-13.5 -9.5t-25.5 -6t-40 -2t-40 2t-25.5 6t-13.5 9.5t-4 13.5
v789h-404v-789q0 -8 -4 -13.5t-13.5 -9.5t-25.5 -6t-40 -2t-40 2t-25.5 6t-13.5 9.5t-4 13.5v789h-127q-16 0 -24 16t-8 52q0 19 2 32t6 21.5t10 12t14 3.5h127v97q0 93 18 159.5t53.5 109.5t88 63.5t120.5 20.5q22 0 44 -2t40 -6t31.5 -8.5t18.5 -9.5t8 -10.5t5 -13.5
t3 -20t1 -29q0 -32 -5 -46t-17 -14q-8 0 -16.5 3.5t-21.5 7.5t-31.5 7.5t-46.5 3.5q-69 0 -98 -51t-29 -163v-99h519q26 0 38.5 -13.5t12.5 -37.5v-875zM950 -178q0 -56 -22 -77t-79 -21q-56 0 -77 20.5t-21 74.5q0 56 21.5 77t78.5 21q56 0 77.5 -20.5t21.5 -74.5z" />
    <glyph glyph-name="f_f_uni1EC9.liga" unicode="ff&#x1ec9;" horiz-adv-x="1654" 
d="M1503 25q0 -8 -4 -13.5t-13.5 -9.5t-25.5 -6t-41 -2q-23 0 -39.5 2t-26 6t-13 9.5t-3.5 13.5v789h-405v-789q0 -8 -4 -13.5t-13.5 -9.5t-25.5 -6t-40 -2t-40 2t-25.5 6t-13.5 9.5t-4 13.5v789h-404v-789q0 -8 -4 -13.5t-13.5 -9.5t-25.5 -6t-40 -2t-40 2t-25.5 6
t-13.5 9.5t-4 13.5v789h-127q-16 0 -24 16t-8 52q0 19 2 32t6 21.5t10 12t14 3.5h127v85q0 93 18 159.5t54 109.5t89.5 63.5t124.5 20.5q42 0 76 -7t49.5 -14t21.5 -13t10 -15.5t5.5 -23t1.5 -32.5q0 -32 -5 -46.5t-18 -14.5q-8 0 -18.5 4.5t-26.5 10t-36 10t-46 4.5
q-74 0 -104 -51t-30 -163v-87h404v97q0 93 18.5 159.5t54.5 109.5t89.5 63.5t122.5 20.5q42 0 76.5 -7.5t49 -14t21 -12.5t10 -15.5t5 -23t1.5 -32.5q0 -32 -5 -46t-18 -14q-7 0 -17.5 4t-26 9.5t-36 10t-45.5 4.5q-73 0 -103.5 -51t-30.5 -163v-99h519q26 0 39 -13.5
t13 -37.5v-875zM1602 1349q0 -70 -36 -111t-96 -52l-2 -66q-1 -15 -14 -22.5t-43 -7.5q-32 0 -45 7t-13 24l-2 96q-1 29 13.5 39t41.5 10h9q35 0 49 23t14 54q0 35 -17 57.5t-53 22.5q-23 0 -42 -8.5t-31 -14.5q-6 -3 -16 -9.5t-23 -6.5q-28 0 -28 57q0 9 0.5 15t4 11
t10.5 9.5t20 12.5q19 9 49.5 17.5t64.5 8.5q48 0 83 -13.5t57.5 -36t33.5 -52.5t11 -64zM1238 951z" />
    <glyph glyph-name="f_f_uni1ECB.liga" unicode="ff&#x1ecb;" horiz-adv-x="1654" 
d="M1521 1228q0 -28 -4.5 -47t-16 -30.5t-31 -16.5t-49.5 -5q-29 0 -48.5 5t-31 16.5t-16.5 30.5t-5 47t5 46.5t16.5 31t31 17t48.5 4.5q30 0 49.5 -4.5t31 -17t16 -31t4.5 -46.5zM1503 25q0 -8 -4 -13.5t-13.5 -9.5t-25.5 -6t-41 -2q-23 0 -39.5 2t-26 6t-13 9.5t-3.5 13.5
v789h-405v-789q0 -8 -4 -13.5t-13.5 -9.5t-25.5 -6t-40 -2t-40 2t-25.5 6t-13.5 9.5t-4 13.5v789h-404v-789q0 -8 -4 -13.5t-13.5 -9.5t-25.5 -6t-40 -2t-40 2t-25.5 6t-13.5 9.5t-4 13.5v789h-127q-16 0 -24 16t-8 52q0 19 2 32t6 21.5t10 12t14 3.5h127v85q0 93 18 159.5
t54 109.5t89.5 63.5t124.5 20.5q44 0 77 -7.5t48.5 -14t21.5 -12.5t10 -15.5t5.5 -23t1.5 -32.5q0 -32 -5 -46.5t-18 -14.5q-8 0 -18.5 4.5t-26.5 10t-36.5 10t-45.5 4.5q-74 0 -104 -51t-30 -163v-87h404v97q0 93 18.5 159.5t53.5 109.5t87.5 63.5t120.5 20.5q22 0 44.5 -2
t40 -6t31 -8.5t18.5 -9.5t8 -10.5t5.5 -13.5t3.5 -20t1 -29q0 -32 -5 -46t-18 -14q-7 0 -16 3.5t-21.5 7.5t-31.5 7.5t-46 3.5q-69 0 -98.5 -51t-29.5 -163v-99h519q26 0 39 -13.5t13 -37.5v-875zM1522 -178q0 -56 -22 -77t-79 -21q-56 0 -77 20.5t-21 74.5q0 56 21.5 77
t78.5 21q56 0 77.5 -20.5t21.5 -74.5z" />
    <glyph glyph-name="f_uni01D0.liga" unicode="f&#x1d0;" horiz-adv-x="1084" 
d="M932 25q0 -8 -4 -13.5t-13.5 -9.5t-25.5 -6t-40 -2t-40 2t-25.5 6t-13.5 9.5t-4 13.5v789h-404v-789q0 -8 -4 -13.5t-13.5 -9.5t-25.5 -6t-40 -2t-40 2t-25.5 6t-13.5 9.5t-4 13.5v789h-127q-16 0 -24 16t-8 52q0 19 2 32t6 21.5t10 12t14 3.5h127v112q0 87 17 150.5
t49.5 104.5t79.5 61.5t108 20.5q28 0 53.5 -4t40.5 -10t21.5 -12.5t9.5 -15.5t4.5 -22.5t1.5 -32.5q0 -31 -4.5 -45t-16.5 -14q-6 0 -14 3t-18.5 7t-26 7.5t-35.5 3.5q-55 0 -79.5 -48.5t-24.5 -149.5v-116h519q26 0 38.5 -13.5t12.5 -37.5v-875zM866 1189l122 181
q6 9 11 14.5t13 9t21 4.5t33 1q25 0 39 -3t19 -9.5t1.5 -17t-13.5 -26.5l-156 -229q-5 -6 -11.5 -11t-16.5 -8.5t-24 -4.5t-35 -1q-22 0 -37.5 1t-25.5 4t-16 7.5t-12 12.5l-153 226q-11 16 -15 27.5t0 18.5t17.5 10t37.5 3q19 0 32 -1t21 -4.5t14 -9t11 -14.5z" />
    <glyph glyph-name="f_uni0209.liga" unicode="f&#x209;" horiz-adv-x="1095" 
d="M932 25q0 -8 -4 -13.5t-13.5 -9.5t-25.5 -6t-40 -2t-40 2t-25.5 6t-13.5 9.5t-4 13.5v789h-404v-789q0 -8 -4 -13.5t-13.5 -9.5t-25.5 -6t-40 -2t-40 2t-25.5 6t-13.5 9.5t-4 13.5v789h-127q-16 0 -24 16t-8 52q0 19 2 32t6 21.5t10 12t14 3.5h127v112q0 87 13.5 150.5
t39 104.5t62.5 61.5t86 20.5q22 0 42 -4t32 -9.5t17 -11.5t7.5 -14.5t3.5 -21.5t1 -30q0 -30 -3 -43t-10 -13q-4 0 -9 1.5t-11.5 4t-16.5 4.5t-22 2q-35 0 -50.5 -48.5t-15.5 -149.5v-116h519q26 0 38.5 -13.5t12.5 -37.5v-875zM809 1334q-11 13 -13 22t6 15.5t27 9.5t50 3
q23 0 38.5 -1.5t26.5 -5t18 -9t12 -13.5l171 -258q4 -8 4 -14t-6 -9.5t-17.5 -5t-30.5 -1.5q-17 0 -29 1t-20.5 3.5t-14.5 6.5t-11 10zM527 1335q-11 11 -13 20.5t5.5 16t25 9.5t45.5 3q26 0 43 -1.5t28 -4.5t17.5 -7.5t11.5 -12.5l182 -262q10 -15 -3.5 -22t-47.5 -7
q-17 0 -29 1t-21 3t-16 6t-13 11z" />
    <glyph glyph-name="f_uni020B.liga" unicode="f&#x20b;" horiz-adv-x="1095" 
d="M932 25q0 -8 -4 -13.5t-13.5 -9.5t-25.5 -6t-40 -2t-40 2t-25.5 6t-13.5 9.5t-4 13.5v789h-404v-789q0 -8 -4 -13.5t-13.5 -9.5t-25.5 -6t-40 -2t-40 2t-25.5 6t-13.5 9.5t-4 13.5v789h-127q-16 0 -24 16t-8 52q0 19 2 32t6 21.5t10 12t14 3.5h127v112q0 87 17 150.5
t49.5 104.5t79.5 61.5t108 20.5q28 0 53.5 -4t40.5 -10t21.5 -12.5t9.5 -15.5t4.5 -22.5t1.5 -32.5q0 -31 -4.5 -45t-16.5 -14q-6 0 -14 3t-18.5 7t-26 7.5t-35.5 3.5q-55 0 -79.5 -48.5t-24.5 -149.5v-116h519q26 0 38.5 -13.5t12.5 -37.5v-875zM989 1119
q-5 72 -40.5 110.5t-98.5 38.5q-34 0 -59 -11t-42 -31.5t-26 -48t-10 -60.5q-1 -8 -3.5 -13t-9.5 -8.5t-19 -5t-32 -1.5q-17 0 -28 1.5t-18 5t-9.5 9.5t-2.5 14q0 61 15 110t47 84t80.5 54t116.5 19q62 0 110.5 -17.5t81.5 -52t50.5 -84.5t17.5 -115q0 -16 -11.5 -22
t-48.5 -6q-35 0 -47.5 6.5t-13.5 23.5z" />
    <glyph glyph-name="f_uni1E2D.liga" unicode="f&#x1e2d;" horiz-adv-x="1084" 
d="M950 1228q0 -28 -4.5 -47t-15.5 -30.5t-30.5 -16.5t-49.5 -5q-29 0 -48.5 5t-31 16.5t-16.5 30.5t-5 47t5 46.5t16.5 31t31 17t48.5 4.5q30 0 49.5 -4.5t30.5 -17t15.5 -31t4.5 -46.5zM932 25q0 -8 -4 -13.5t-13.5 -9.5t-25.5 -6t-40 -2t-40 2t-25.5 6t-13.5 9.5t-4 13.5
v789h-404v-789q0 -8 -4 -13.5t-13.5 -9.5t-25.5 -6t-40 -2t-40 2t-25.5 6t-13.5 9.5t-4 13.5v789h-127q-16 0 -24 16t-8 52q0 19 2 32t6 21.5t10 12t14 3.5h127v97q0 93 18 159.5t53.5 109.5t88 63.5t120.5 20.5q22 0 44 -2t40 -6t31.5 -8.5t18.5 -9.5t8 -10.5t5 -13.5
t3 -20t1 -29q0 -32 -5 -46t-17 -14q-8 0 -16.5 3.5t-21.5 7.5t-31.5 7.5t-46.5 3.5q-69 0 -98 -51t-29 -163v-99h519q26 0 38.5 -13.5t12.5 -37.5v-875zM1182 -175q0 -106 -52 -162t-141 -56q-37 0 -66 9.5t-53 24.5t-44 32t-39.5 32t-38.5 24.5t-41 9.5q-40 0 -56 -29
t-16 -77q0 -7 -2 -12.5t-8.5 -8.5t-19 -4t-31.5 -1q-16 0 -27 1.5t-17.5 6t-9.5 13t-3 21.5q0 99 50 158t143 59q54 0 93 -20.5t70.5 -45t59 -45.5t59.5 -21q36 0 54.5 26.5t18.5 78.5q0 16 10.5 21.5t45.5 5.5q37 0 49 -7.5t12 -33.5zM388 -538z" />
    <glyph glyph-name="f_uni1E2F.liga" unicode="f&#x1e2f;" horiz-adv-x="1103" 
d="M951 25q0 -8 -4 -13.5t-13.5 -9.5t-25.5 -6t-40 -2t-40 2t-26 6t-13.5 9.5t-3.5 13.5v789h-423v-789q0 -8 -4 -13.5t-13.5 -9.5t-25.5 -6t-40 -2t-40 2t-25.5 6t-13.5 9.5t-4 13.5v789h-127q-16 0 -24 16t-8 52q0 19 2 32t6 21.5t10 12t14 3.5h127v117q0 86 18 148.5
t52 103t84 60.5t114 20q15 0 29.5 -1t28 -3t25 -5t20 -6.5t13.5 -8.5t8 -13t4.5 -21t1.5 -32q0 -32 -5 -47.5t-17 -15.5q-7 0 -14.5 2t-18.5 5t-26 5.5t-37 2.5q-61 0 -87.5 -48t-26.5 -149v-114h538q26 0 38.5 -13.5t12.5 -37.5v-875zM646 1228q0 27 4.5 45t15 29t28 15.5
t42.5 4.5t42 -4.5t27.5 -15.5t15 -29t4.5 -45t-4.5 -45t-15 -29t-27.5 -16t-42 -5t-42.5 5t-28 16t-15 29t-4.5 45zM935 1228q0 27 4.5 45t15 29t28 15.5t41.5 4.5q26 0 43 -4.5t27 -15.5t14.5 -29t4.5 -45t-4.5 -45t-14.5 -29t-27 -16t-43 -5q-24 0 -41.5 5t-28 16t-15 29
t-4.5 45zM948 1630q12 22 33.5 29.5t69.5 7.5q56 0 69.5 -13.5t-2.5 -32.5l-160 -199q-8 -10 -14.5 -16t-15.5 -9.5t-21.5 -5t-33.5 -1.5q-44 0 -53.5 10.5t4.5 32.5z" />
    <glyph glyph-name="f_uni0268.liga" unicode="f&#x268;" horiz-adv-x="1084" 
d="M950 1228q0 -28 -4.5 -47t-15.5 -30.5t-30.5 -16.5t-49.5 -5q-29 0 -48.5 5t-31 16.5t-16.5 30.5t-5 47t5 46.5t16.5 31t31 17t48.5 4.5q30 0 49.5 -4.5t30.5 -17t15.5 -31t4.5 -46.5zM932 25q0 -8 -4 -13.5t-13.5 -9.5t-25.5 -6t-40 -2t-40 2t-25.5 6t-13.5 9.5t-4 13.5
v789h-404v-789q0 -8 -4 -13.5t-13.5 -9.5t-25.5 -6t-40 -2t-40 2t-25.5 6t-13.5 9.5t-4 13.5v789h-127q-16 0 -24 16t-8 52q0 19 2 32t6 21.5t10 12t14 3.5h127v97q0 93 18 159.5t53.5 109.5t88 63.5t120.5 20.5q22 0 44 -2t40 -6t31.5 -8.5t18.5 -9.5t8 -10.5t5 -13.5
t3 -20t1 -29q0 -32 -5 -46t-17 -14q-8 0 -16.5 3.5t-21.5 7.5t-31.5 7.5t-46.5 3.5q-69 0 -98 -51t-29 -163v-99h519q26 0 38.5 -13.5t12.5 -37.5v-875zM632 449q-8 0 -14 3.5t-10.5 11t-6.5 20t-2 29.5q0 18 2 30.5t6.5 19.5t10.5 10.5t14 3.5h434q7 0 13 -3.5t10.5 -10.5
t6.5 -19.5t2 -30.5q0 -17 -2 -29.5t-6.5 -20t-10 -11t-13.5 -3.5h-434z" />
    <glyph glyph-name="f_f_uni01D0.liga" unicode="ff&#x1d0;" horiz-adv-x="1654" 
d="M1503 25q0 -8 -4 -13.5t-13.5 -9.5t-25.5 -6t-40 -2t-40 2t-25.5 6t-13.5 9.5t-4 13.5v789h-404v-789q0 -8 -4 -13.5t-13.5 -9.5t-25.5 -6t-40 -2t-40 2t-25.5 6t-13.5 9.5t-4 13.5v789h-405v-789q0 -8 -4 -13.5t-13.5 -9.5t-25.5 -6t-40 -2t-40 2t-25.5 6t-13.5 9.5
t-4 13.5v789h-127q-16 0 -24 16t-8 52q0 19 2 32t6 21.5t10 12t14 3.5h127v85q0 93 18 159.5t54 109.5t89.5 63.5t124.5 20.5q44 0 77 -7.5t48.5 -14t21.5 -12.5t10 -15.5t5.5 -23t1.5 -32.5q0 -32 -5 -46.5t-18 -14.5q-8 0 -18.5 4.5t-26.5 10t-36.5 10t-45.5 4.5
q-74 0 -104 -51t-30 -163v-87h405v112q0 87 17 150.5t49.5 104.5t79.5 61.5t108 20.5q28 0 53.5 -4t40.5 -10t21.5 -12.5t9.5 -15.5t4.5 -22.5t1.5 -32.5q0 -31 -4.5 -45t-16.5 -14q-6 0 -14 3t-18.5 7t-26 7.5t-35.5 3.5q-55 0 -79.5 -48.5t-24.5 -149.5v-116h519
q26 0 38.5 -13.5t12.5 -37.5v-875zM1437 1189l122 181q6 9 11 14.5t13 9t21 4.5t33 1q25 0 39 -3t19 -9.5t1.5 -17t-13.5 -26.5l-156 -229q-5 -6 -11.5 -11t-16.5 -8.5t-24 -4.5t-35 -1q-22 0 -37.5 1t-25.5 4t-16 7.5t-12 12.5l-153 226q-11 16 -15 27.5t0 18.5t17.5 10
t37.5 3q19 0 32 -1t21 -4.5t14 -9t11 -14.5z" />
    <glyph glyph-name="f_f_uni0209.liga" unicode="ff&#x209;" horiz-adv-x="1666" 
d="M1503 25q0 -8 -4 -13.5t-13.5 -9.5t-25.5 -6t-40 -2t-40 2t-25.5 6t-13.5 9.5t-4 13.5v789h-404v-789q0 -8 -4 -13.5t-13.5 -9.5t-25.5 -6t-40 -2t-40 2t-25.5 6t-13.5 9.5t-4 13.5v789h-405v-789q0 -8 -4 -13.5t-13.5 -9.5t-25.5 -6t-40 -2t-40 2t-25.5 6t-13.5 9.5
t-4 13.5v789h-127q-16 0 -24 16t-8 52q0 19 2 32t6 21.5t10 12t14 3.5h127v85q0 93 18 159.5t54 109.5t89.5 63.5t124.5 20.5q44 0 77 -7.5t48.5 -14t21.5 -12.5t10 -15.5t5.5 -23t1.5 -32.5q0 -32 -5 -46.5t-18 -14.5q-8 0 -18.5 4.5t-26.5 10t-36.5 10t-45.5 4.5
q-74 0 -104 -51t-30 -163v-87h405v112q0 87 13.5 150.5t39 104.5t62.5 61.5t86 20.5q22 0 42 -4t32 -9.5t17 -11.5t7.5 -14.5t3.5 -21.5t1 -30q0 -30 -3 -43t-10 -13q-4 0 -9 1.5t-11.5 4t-16.5 4.5t-22 2q-35 0 -50.5 -48.5t-15.5 -149.5v-116h519q26 0 38.5 -13.5
t12.5 -37.5v-875zM1098 1335q-11 11 -13 20.5t5.5 16t25 9.5t45.5 3q26 0 43 -1.5t28 -4.5t17.5 -7.5t11.5 -12.5l182 -262q10 -15 -3.5 -22t-47.5 -7q-17 0 -29 1t-21 3t-16 6t-13 11zM1380 1334q-11 13 -13 22t6 15.5t27 9.5t50 3q23 0 38.5 -1.5t26.5 -5t18 -9t12 -13.5
l171 -258q4 -8 4 -14t-6 -9.5t-17.5 -5t-30.5 -1.5q-17 0 -29 1t-20.5 3.5t-14.5 6.5t-11 10z" />
    <glyph glyph-name="f_f_uni020B.liga" unicode="ff&#x20b;" horiz-adv-x="1666" 
d="M1503 25q0 -8 -4 -13.5t-13.5 -9.5t-25.5 -6t-40 -2t-40 2t-25.5 6t-13.5 9.5t-4 13.5v789h-404v-789q0 -8 -4 -13.5t-13.5 -9.5t-25.5 -6t-40 -2t-40 2t-25.5 6t-13.5 9.5t-4 13.5v789h-405v-789q0 -8 -4 -13.5t-13.5 -9.5t-25.5 -6t-40 -2t-40 2t-25.5 6t-13.5 9.5
t-4 13.5v789h-127q-16 0 -24 16t-8 52q0 19 2 32t6 21.5t10 12t14 3.5h127v85q0 93 18 159.5t54 109.5t89.5 63.5t124.5 20.5q44 0 77 -7.5t48.5 -14t21.5 -12.5t10 -15.5t5.5 -23t1.5 -32.5q0 -32 -5 -46.5t-18 -14.5q-8 0 -18.5 4.5t-26.5 10t-36.5 10t-45.5 4.5
q-74 0 -104 -51t-30 -163v-87h405v112q0 87 17 150.5t49.5 104.5t79.5 61.5t108 20.5q28 0 53.5 -4t40.5 -10t21.5 -12.5t9.5 -15.5t4.5 -22.5t1.5 -32.5q0 -31 -4.5 -45t-16.5 -14q-6 0 -14 3t-18.5 7t-26 7.5t-35.5 3.5q-55 0 -79.5 -48.5t-24.5 -149.5v-116h519
q26 0 38.5 -13.5t12.5 -37.5v-875zM1560 1119q-5 72 -40.5 110.5t-98.5 38.5q-34 0 -59 -11t-42 -31.5t-26 -48t-10 -60.5q-1 -8 -3.5 -13t-9.5 -8.5t-19 -5t-32 -1.5q-17 0 -28 1.5t-18 5t-9.5 9.5t-2.5 14q0 61 15 110t47 84t80.5 54t116.5 19q62 0 110.5 -17.5t81.5 -52
t50.5 -84.5t17.5 -115q0 -16 -11.5 -22t-48.5 -6q-35 0 -47.5 6.5t-13.5 23.5z" />
    <glyph glyph-name="f_f_uni1E2D.liga" unicode="ff&#x1e2d;" horiz-adv-x="1654" 
d="M1521 1228q0 -28 -4.5 -47t-16 -30.5t-31 -16.5t-49.5 -5q-29 0 -48.5 5t-31 16.5t-16.5 30.5t-5 47t5 46.5t16.5 31t31 17t48.5 4.5q30 0 49.5 -4.5t31 -17t16 -31t4.5 -46.5zM1503 25q0 -8 -4 -13.5t-13.5 -9.5t-25.5 -6t-41 -2q-23 0 -39.5 2t-26 6t-13 9.5t-3.5 13.5
v789h-405v-789q0 -8 -4 -13.5t-13.5 -9.5t-25.5 -6t-40 -2t-40 2t-25.5 6t-13.5 9.5t-4 13.5v789h-404v-789q0 -8 -4 -13.5t-13.5 -9.5t-25.5 -6t-40 -2t-40 2t-25.5 6t-13.5 9.5t-4 13.5v789h-127q-16 0 -24 16t-8 52q0 19 2 32t6 21.5t10 12t14 3.5h127v85q0 93 18 159.5
t54 109.5t89.5 63.5t124.5 20.5q44 0 77 -7.5t48.5 -14t21.5 -12.5t10 -15.5t5.5 -23t1.5 -32.5q0 -32 -5 -46.5t-18 -14.5q-8 0 -18.5 4.5t-26.5 10t-36.5 10t-45.5 4.5q-74 0 -104 -51t-30 -163v-87h404v97q0 93 18.5 159.5t53.5 109.5t87.5 63.5t120.5 20.5q22 0 44.5 -2
t40 -6t31 -8.5t18.5 -9.5t8 -10.5t5.5 -13.5t3.5 -20t1 -29q0 -32 -5 -46t-18 -14q-7 0 -16 3.5t-21.5 7.5t-31.5 7.5t-46 3.5q-69 0 -98.5 -51t-29.5 -163v-99h519q26 0 39 -13.5t13 -37.5v-875zM1752 -175q0 -106 -52 -162t-141 -56q-37 0 -66 9.5t-53 24.5t-44 32
t-39.5 32t-38.5 24.5t-41 9.5q-40 0 -56 -29t-16 -77q0 -7 -2 -12.5t-8.5 -8.5t-19 -4t-31.5 -1q-16 0 -27 1.5t-17.5 6t-9.5 13t-3 21.5q0 99 50 158t143 59q54 0 93 -20.5t70.5 -45t59 -45.5t59.5 -21q36 0 54.5 26.5t18.5 78.5q0 16 10.5 21.5t45.5 5.5q37 0 49 -7.5
t12 -33.5zM958 -538z" />
    <glyph glyph-name="f_f_uni1E2F.liga" unicode="ff&#x1e2f;" horiz-adv-x="1673" 
d="M1521 25q0 -8 -4 -13.5t-13.5 -9.5t-25.5 -6t-40 -2t-40 2t-26 6t-13.5 9.5t-3.5 13.5v789h-423v-789q0 -8 -4 -13.5t-13.5 -9.5t-25.5 -6t-40 -2t-40 2t-25.5 6t-13.5 9.5t-4 13.5v789h-404v-789q0 -8 -4 -13.5t-13.5 -9.5t-25.5 -6t-40 -2t-40 2t-25.5 6t-13.5 9.5
t-4 13.5v789h-127q-16 0 -24 16t-8 52q0 19 2 32t6 21.5t10 12t14 3.5h127v85q0 93 18 159.5t54 109.5t89.5 63.5t124.5 20.5q42 0 76 -7t49.5 -14t21.5 -13t10 -15.5t5.5 -23t1.5 -32.5q0 -32 -5 -46.5t-18 -14.5q-8 0 -18.5 4.5t-26.5 10t-36 10t-46 4.5q-74 0 -104 -51
t-30 -163v-87h404v117q0 86 18 148.5t52 103t84 60.5t114 20q15 0 29.5 -1t28 -3t25 -5t20 -6.5t13.5 -8.5t8 -13t4.5 -21t1.5 -32q0 -32 -5 -47.5t-17 -15.5q-7 0 -14.5 2t-18.5 5t-26 5.5t-37 2.5q-61 0 -87.5 -48t-26.5 -149v-114h538q26 0 38.5 -13.5t12.5 -37.5v-875z
M1518 1630q12 22 33.5 29.5t69.5 7.5q56 0 69.5 -13.5t-2.5 -32.5l-160 -199q-8 -10 -14.5 -16t-15.5 -9.5t-21.5 -5t-33.5 -1.5q-44 0 -53.5 10.5t4.5 32.5zM1216 1228q0 27 4.5 45t15 29t28 15.5t42.5 4.5t42 -4.5t27.5 -15.5t15 -29t4.5 -45t-4.5 -45t-15 -29t-27.5 -16
t-42 -5t-42.5 5t-28 16t-15 29t-4.5 45zM1505 1228q0 27 4.5 45t15 29t28 15.5t41.5 4.5q26 0 43 -4.5t27 -15.5t14.5 -29t4.5 -45t-4.5 -45t-14.5 -29t-27 -16t-43 -5q-24 0 -41.5 5t-28 16t-15 29t-4.5 45z" />
    <glyph glyph-name="f_f_uni0268.liga" unicode="ff&#x268;" horiz-adv-x="1654" 
d="M1521 1228q0 -28 -4.5 -47t-16 -30.5t-31 -16.5t-49.5 -5q-29 0 -48.5 5t-31 16.5t-16.5 30.5t-5 47t5 46.5t16.5 31t31 17t48.5 4.5q30 0 49.5 -4.5t31 -17t16 -31t4.5 -46.5zM1503 25q0 -8 -4 -13.5t-13.5 -9.5t-25.5 -6t-41 -2q-23 0 -39.5 2t-26 6t-13 9.5t-3.5 13.5
v789h-405v-789q0 -8 -4 -13.5t-13.5 -9.5t-25.5 -6t-40 -2t-40 2t-25.5 6t-13.5 9.5t-4 13.5v789h-404v-789q0 -8 -4 -13.5t-13.5 -9.5t-25.5 -6t-40 -2t-40 2t-25.5 6t-13.5 9.5t-4 13.5v789h-127q-16 0 -24 16t-8 52q0 19 2 32t6 21.5t10 12t14 3.5h127v85q0 93 18 159.5
t54 109.5t89.5 63.5t124.5 20.5q44 0 77 -7.5t48.5 -14t21.5 -12.5t10 -15.5t5.5 -23t1.5 -32.5q0 -32 -5 -46.5t-18 -14.5q-8 0 -18.5 4.5t-26.5 10t-36.5 10t-45.5 4.5q-74 0 -104 -51t-30 -163v-87h404v97q0 93 18.5 159.5t53.5 109.5t87.5 63.5t120.5 20.5q22 0 44.5 -2
t40 -6t31 -8.5t18.5 -9.5t8 -10.5t5.5 -13.5t3.5 -20t1 -29q0 -32 -5 -46t-18 -14q-7 0 -16 3.5t-21.5 7.5t-31.5 7.5t-46 3.5q-69 0 -98.5 -51t-29.5 -163v-99h519q26 0 39 -13.5t13 -37.5v-875zM1204 449q-8 0 -14 3.5t-10.5 11t-6.5 20t-2 29.5q0 18 2 30.5t6.5 19.5
t10.5 10.5t14 3.5h434q7 0 13 -3.5t10.5 -10.5t6.5 -19.5t2 -30.5q0 -17 -2 -29.5t-6.5 -20t-10 -11t-13.5 -3.5h-434z" />
    <glyph glyph-name="t_uni01D0.liga" unicode="t&#x1d0;" horiz-adv-x="1141" 
d="M936 951q30 0 41 -13.5t11 -39.5v-873q0 -8 -4 -13.5t-13.5 -9.5t-25.5 -6t-39 -2q-25 0 -41 2t-25.5 6t-13.5 9.5t-4 13.5v789h-465v-502q0 -93 27.5 -140.5t98.5 -47.5q23 0 41 4.5t32 9.5t24 9.5t18 4.5q5 0 9.5 -2.5t7 -9.5t4.5 -19t2 -30q0 -29 -4 -45.5t-12 -25
t-24 -15.5t-36.5 -11.5t-43.5 -7.5t-46 -3q-70 0 -120 18.5t-82 56t-46.5 95t-14.5 135.5v526h-126q-15 0 -24 16t-9 52q0 19 2.5 32t6.5 21.5t10.5 12t14.5 3.5h125v214q0 7 3.5 13t13 10.5t25.5 6.5t40 2q25 0 41 -2t25 -6.5t13 -10.5t4 -13v-214h579zM1035 1372
q7 9 12.5 14.5t14.5 9t21.5 5t31.5 1.5q26 0 41 -3.5t19.5 -10t0.5 -17t-15 -25.5l-165 -229q-6 -8 -13 -13t-17.5 -7.5t-25.5 -4t-37 -1.5q-21 0 -35 1.5t-24.5 4.5t-17 8t-11.5 12l-165 229q-11 14 -15 25t1 17.5t19.5 10t40.5 3.5q21 0 33.5 -1.5t20.5 -5t13.5 -9
t11.5 -14.5l130 -181zM501 951z" />
    <glyph glyph-name="t_uni0209.liga" unicode="t&#x209;" horiz-adv-x="1141" 
d="M936 951q30 0 41 -13.5t11 -39.5v-873q0 -8 -4 -13.5t-13.5 -9.5t-25.5 -6t-39 -2q-25 0 -41 2t-25.5 6t-13.5 9.5t-4 13.5v789h-465v-502q0 -93 27.5 -140.5t98.5 -47.5q23 0 41 4.5t32 9.5t24 9.5t18 4.5q5 0 9.5 -2.5t7 -9.5t4.5 -19t2 -30q0 -29 -4 -45.5t-12 -25
t-24 -15.5t-36.5 -11.5t-43.5 -7.5t-46 -3q-70 0 -120 18.5t-82 56t-46.5 95t-14.5 135.5v526h-126q-15 0 -24 16t-9 52q0 19 2.5 32t6.5 21.5t10.5 12t14.5 3.5h125v214q0 7 3.5 13t13 10.5t25.5 6.5t40 2q25 0 41 -2t25 -6.5t13 -10.5t4 -13v-214h579zM819 1334
q-11 13 -13 22t6 15.5t27 9.5t50 3q23 0 38.5 -1.5t26.5 -5t18 -9t12 -13.5l171 -258q4 -8 4 -14t-6 -9.5t-17.5 -5t-30.5 -1.5q-17 0 -29 1t-20.5 3.5t-14.5 6.5t-11 10zM477 1335q-11 11 -13 20.5t5.5 16t25 9.5t45.5 3q26 0 43 -1.5t28 -4.5t17.5 -7.5t11.5 -12.5
l182 -262q10 -15 -3.5 -22t-47.5 -7q-17 0 -29 1t-21 3t-16 6t-13 11zM328 958z" />
    <glyph glyph-name="t_uni020B.liga" unicode="t&#x20b;" horiz-adv-x="1141" 
d="M936 951q30 0 41 -13.5t11 -39.5v-873q0 -8 -4 -13.5t-13.5 -9.5t-25.5 -6t-39 -2q-25 0 -41 2t-25.5 6t-13.5 9.5t-4 13.5v789h-465v-502q0 -93 27.5 -140.5t98.5 -47.5q23 0 41 4.5t32 9.5t24 9.5t18 4.5q5 0 9.5 -2.5t7 -9.5t4.5 -19t2 -30q0 -29 -4 -45.5t-12 -25
t-24 -15.5t-36.5 -11.5t-43.5 -7.5t-46 -3q-70 0 -120 18.5t-82 56t-46.5 95t-14.5 135.5v526h-126q-15 0 -24 16t-9 52q0 19 2.5 32t6.5 21.5t10.5 12t14.5 3.5h125v214q0 7 3.5 13t13 10.5t25.5 6.5t40 2q25 0 41 -2t25 -6.5t13 -10.5t4 -13v-214h579zM1045 1126
q-2 41 -13 69.5t-29.5 47t-43.5 27t-55 8.5q-35 0 -60.5 -10.5t-42 -30.5t-25 -48.5t-11.5 -62.5q0 -8 -3 -13.5t-9.5 -9t-18 -5.5t-29.5 -2q-34 0 -46 7.5t-12 23.5q0 64 14.5 114t46 84t80 52t116.5 18q64 0 112.5 -17t81 -51t49 -84.5t16.5 -118.5q0 -7 -2.5 -12.5t-9 -9
t-18 -5t-30.5 -1.5q-34 0 -46 7.5t-12 22.5zM514 958z" />
    <glyph glyph-name="t_uni1E2D.liga" unicode="t&#x1e2d;" horiz-adv-x="1141" 
d="M936 951q30 0 41 -13.5t11 -39.5v-873q0 -8 -4 -13.5t-13.5 -9.5t-25.5 -6t-39 -2q-25 0 -41 2t-25.5 6t-13.5 9.5t-4 13.5v789h-465v-502q0 -93 27.5 -140.5t98.5 -47.5q23 0 41 4.5t32 9.5t24 9.5t18 4.5q5 0 9.5 -2.5t7 -9.5t4.5 -19t2 -30q0 -29 -4 -45.5t-12 -25
t-24 -15.5t-36.5 -11.5t-43.5 -7.5t-46 -3q-70 0 -120 18.5t-82 56t-46.5 95t-14.5 135.5v526h-126q-15 0 -24 16t-9 52q0 19 2.5 32t6.5 21.5t10.5 12t14.5 3.5h125v214q0 7 3.5 13t13 10.5t25.5 6.5t40 2q25 0 41 -2t25 -6.5t13 -10.5t4 -13v-214h579zM1007 1229
q0 -58 -22 -79t-81 -21q-58 0 -79.5 20.5t-21.5 77.5q0 58 22 79t81 21q58 0 79.5 -20.5t21.5 -77.5zM670 951zM1239 -175q0 -106 -52 -162t-141 -56q-37 0 -66 9.5t-53 24.5t-44 32t-39.5 32t-38.5 24.5t-41 9.5q-40 0 -56 -29t-16 -77q0 -7 -2 -12.5t-8.5 -8.5t-19 -4
t-31.5 -1q-16 0 -27 1.5t-17.5 6t-9.5 13t-3 21.5q0 99 50 158t143 59q54 0 93 -20.5t70.5 -45t59 -45.5t59.5 -21q36 0 54.5 26.5t18.5 78.5q0 16 10.5 21.5t45.5 5.5q37 0 49 -7.5t12 -33.5zM445 -538z" />
    <glyph glyph-name="t_uni1E2F.liga" unicode="t&#x1e2f;" horiz-adv-x="1141" 
d="M936 951q30 0 41 -13.5t11 -39.5v-873q0 -8 -4 -13.5t-13.5 -9.5t-25.5 -6t-39 -2q-25 0 -41 2t-25.5 6t-13.5 9.5t-4 13.5v789h-465v-502q0 -93 27.5 -140.5t98.5 -47.5q23 0 41 4.5t32 9.5t24 9.5t18 4.5q5 0 9.5 -2.5t7 -9.5t4.5 -19t2 -30q0 -29 -4 -45.5t-12 -25
t-24 -15.5t-36.5 -11.5t-43.5 -7.5t-46 -3q-70 0 -120 18.5t-82 56t-46.5 95t-14.5 135.5v526h-126q-15 0 -24 16t-9 52q0 19 2.5 32t6.5 21.5t10.5 12t14.5 3.5h125v214q0 7 3.5 13t13 10.5t25.5 6.5t40 2q25 0 41 -2t25 -6.5t13 -10.5t4 -13v-214h579zM974 1621
q12 22 33.5 29.5t69.5 7.5q56 0 69.5 -13.5t-2.5 -32.5l-160 -199q-8 -10 -14.5 -16t-15.5 -9.5t-21.5 -5t-33.5 -1.5q-44 0 -53.5 10.5t4.5 32.5zM797 1215q0 -56 -21 -77t-77 -21t-76 20.5t-20 75.5q0 56 20.5 76.5t76.5 20.5t76.5 -20t20.5 -75zM1210 1215
q0 -56 -20.5 -77t-77.5 -21q-55 0 -75.5 20.5t-20.5 75.5q0 56 21 76.5t76 20.5q57 0 77 -20t20 -75zM504 951z" />
    <glyph glyph-name="t_uni0268.liga" unicode="t&#x268;" horiz-adv-x="1141" 
d="M936 951q30 0 41 -13.5t11 -39.5v-873q0 -8 -4 -13.5t-13.5 -9.5t-25.5 -6t-39 -2q-25 0 -41 2t-25.5 6t-13.5 9.5t-4 13.5v789h-465v-502q0 -93 27.5 -140.5t98.5 -47.5q23 0 41 4.5t32 9.5t24 9.5t18 4.5q5 0 9.5 -2.5t7 -9.5t4.5 -19t2 -30q0 -29 -4 -45.5t-12 -25
t-24 -15.5t-36.5 -11.5t-43.5 -7.5t-46 -3q-70 0 -120 18.5t-82 56t-46.5 95t-14.5 135.5v526h-126q-15 0 -24 16t-9 52q0 19 2.5 32t6.5 21.5t10.5 12t14.5 3.5h125v214q0 7 3.5 13t13 10.5t25.5 6.5t40 2q25 0 41 -2t25 -6.5t13 -10.5t4 -13v-214h579zM1007 1229
q0 -58 -22 -79t-81 -21q-58 0 -79.5 20.5t-21.5 77.5q0 58 22 79t81 21q58 0 79.5 -20.5t21.5 -77.5zM670 951zM689 449q-8 0 -14 3.5t-10.5 11t-6.5 20t-2 29.5q0 18 2 30.5t6.5 19.5t10.5 10.5t14 3.5h434q7 0 13 -3.5t10.5 -10.5t6.5 -19.5t2 -30.5q0 -17 -2 -29.5
t-6.5 -20t-10 -11t-13.5 -3.5h-434z" />
    <glyph glyph-name="t_t_uni01D0.liga" unicode="tt&#x1d0;" horiz-adv-x="1753" 
d="M357 814v-502q0 -93 27.5 -140.5t98.5 -47.5q23 0 41 4.5t32 9.5t24 9.5t18 4.5q5 0 9.5 -2.5t7 -9.5t4.5 -19t2 -30q0 -29 -4 -46t-12.5 -25t-24 -15t-36 -11.5t-43.5 -7.5t-46 -3q-70 0 -120 18.5t-82 56t-46.5 95t-14.5 135.5v526h-126q-15 0 -24 16t-9 52
q0 19 2.5 32t6.5 21.5t10.5 12t14.5 3.5h125v214q0 7 3.5 13t13 10.5t25.5 6.5t40 2q25 0 41 -2t25 -6.5t13 -10.5t4 -13v-214h447v257q0 8 4 14t13.5 9.5t25.5 6t40 2.5t40 -2.5t25.5 -6t13.5 -9.5t4 -14v-257h579q29 0 40.5 -13.5t11.5 -39.5v-873q0 -8 -4 -13.5
t-13.5 -9.5t-25.5 -6t-41 -2q-23 0 -39 2t-26 6t-13.5 9.5t-3.5 13.5v789h-465v-502q0 -93 27 -140.5t98 -47.5q22 0 40.5 4.5t32.5 9.5t24.5 9.5t17.5 4.5q6 0 10 -2.5t6.5 -9.5t4.5 -19t2 -30q0 -29 -4 -46t-12.5 -25t-23.5 -15t-35.5 -11.5t-44 -7.5t-45.5 -3
q-71 0 -121 18.5t-81.5 56t-46.5 95t-15 135.5v526h-447zM1648 1372q7 9 12.5 14.5t14.5 9t21.5 5t31.5 1.5q26 0 41 -3.5t19.5 -10t0.5 -17t-15 -25.5l-165 -229q-6 -8 -13 -13t-17.5 -7.5t-25.5 -4t-37 -1.5q-21 0 -35 1.5t-24.5 4.5t-17 8t-11.5 12l-165 229
q-11 14 -15 25t1 17.5t19.5 10t40.5 3.5q21 0 33.5 -1.5t20.5 -5t13.5 -9t11.5 -14.5l130 -181zM1114 951z" />
    <glyph glyph-name="t_t_uni0209.liga" unicode="tt&#x209;" horiz-adv-x="1753" 
d="M357 814v-502q0 -93 27.5 -140.5t98.5 -47.5q23 0 41 4.5t32 9.5t24 9.5t18 4.5q5 0 9.5 -2.5t7 -9.5t4.5 -19t2 -30q0 -29 -4 -46t-12.5 -25t-24 -15t-36 -11.5t-43.5 -7.5t-46 -3q-70 0 -120 18.5t-82 56t-46.5 95t-14.5 135.5v526h-126q-15 0 -24 16t-9 52
q0 19 2.5 32t6.5 21.5t10.5 12t14.5 3.5h125v214q0 7 3.5 13t13 10.5t25.5 6.5t40 2q25 0 41 -2t25 -6.5t13 -10.5t4 -13v-214h447v257q0 8 4 14t13.5 9.5t25.5 6t40 2.5t40 -2.5t25.5 -6t13.5 -9.5t4 -14v-257h579q29 0 40.5 -13.5t11.5 -39.5v-873q0 -8 -4 -13.5
t-13.5 -9.5t-25.5 -6t-41 -2q-23 0 -39 2t-26 6t-13.5 9.5t-3.5 13.5v789h-465v-502q0 -93 27 -140.5t98 -47.5q22 0 40.5 4.5t32.5 9.5t24.5 9.5t17.5 4.5q6 0 10 -2.5t6.5 -9.5t4.5 -19t2 -30q0 -29 -4 -46t-12.5 -25t-23.5 -15t-35.5 -11.5t-44 -7.5t-45.5 -3
q-71 0 -121 18.5t-81.5 56t-46.5 95t-15 135.5v526h-447zM1431 1334q-11 13 -13 22t6 15.5t27 9.5t50 3q23 0 38.5 -1.5t26.5 -5t18 -9t12 -13.5l171 -258q4 -8 4 -14t-6 -9.5t-17.5 -5t-30.5 -1.5q-17 0 -29 1t-20.5 3.5t-14.5 6.5t-11 10zM1089 1335q-11 11 -13 20.5
t5.5 16t25 9.5t45.5 3q26 0 43 -1.5t28 -4.5t17.5 -7.5t11.5 -12.5l182 -262q10 -15 -3.5 -22t-47.5 -7q-17 0 -29 1t-21 3t-16 6t-13 11zM940 958z" />
    <glyph glyph-name="t_t_uni020B.liga" unicode="tt&#x20b;" horiz-adv-x="1753" 
d="M357 814v-502q0 -93 27.5 -140.5t98.5 -47.5q23 0 41 4.5t32 9.5t24 9.5t18 4.5q5 0 9.5 -2.5t7 -9.5t4.5 -19t2 -30q0 -29 -4 -46t-12.5 -25t-24 -15t-36 -11.5t-43.5 -7.5t-46 -3q-70 0 -120 18.5t-82 56t-46.5 95t-14.5 135.5v526h-126q-15 0 -24 16t-9 52
q0 19 2.5 32t6.5 21.5t10.5 12t14.5 3.5h125v214q0 7 3.5 13t13 10.5t25.5 6.5t40 2q25 0 41 -2t25 -6.5t13 -10.5t4 -13v-214h447v257q0 8 4 14t13.5 9.5t25.5 6t40 2.5t40 -2.5t25.5 -6t13.5 -9.5t4 -14v-257h579q29 0 40.5 -13.5t11.5 -39.5v-873q0 -8 -4 -13.5
t-13.5 -9.5t-25.5 -6t-41 -2q-23 0 -39 2t-26 6t-13.5 9.5t-3.5 13.5v789h-465v-502q0 -93 27 -140.5t98 -47.5q22 0 40.5 4.5t32.5 9.5t24.5 9.5t17.5 4.5q6 0 10 -2.5t6.5 -9.5t4.5 -19t2 -30q0 -29 -4 -46t-12.5 -25t-23.5 -15t-35.5 -11.5t-44 -7.5t-45.5 -3
q-71 0 -121 18.5t-81.5 56t-46.5 95t-15 135.5v526h-447zM1657 1126q-2 41 -13 69.5t-29.5 47t-43.5 27t-55 8.5q-35 0 -60.5 -10.5t-42 -30.5t-25 -48.5t-11.5 -62.5q0 -8 -3 -13.5t-9.5 -9t-18 -5.5t-29.5 -2q-34 0 -46 7.5t-12 23.5q0 64 14.5 114t46 84t80 52t116.5 18
q64 0 112.5 -17t81 -51t49 -84.5t16.5 -118.5q0 -7 -2.5 -12.5t-9 -9t-18 -5t-30.5 -1.5q-34 0 -46 7.5t-12 22.5zM1126 958z" />
    <glyph glyph-name="t_t_uni1E2D.liga" unicode="tt&#x1e2d;" horiz-adv-x="1753" 
d="M357 814v-502q0 -93 27.5 -140.5t98.5 -47.5q23 0 41 4.5t32 9.5t24 9.5t18 4.5q5 0 9.5 -2.5t7 -9.5t4.5 -19t2 -30q0 -29 -4 -46t-12.5 -25t-24 -15t-36 -11.5t-43.5 -7.5t-46 -3q-70 0 -120 18.5t-82 56t-46.5 95t-14.5 135.5v526h-126q-15 0 -24 16t-9 52
q0 19 2.5 32t6.5 21.5t10.5 12t14.5 3.5h125v214q0 7 3.5 13t13 10.5t25.5 6.5t40 2q25 0 41 -2t25 -6.5t13 -10.5t4 -13v-214h447v257q0 8 4 14t13.5 9.5t25.5 6t40 2.5t40 -2.5t25.5 -6t13.5 -9.5t4 -14v-257h579q29 0 40.5 -13.5t11.5 -39.5v-873q0 -8 -4 -13.5
t-13.5 -9.5t-25.5 -6t-41 -2q-23 0 -39 2t-26 6t-13.5 9.5t-3.5 13.5v789h-465v-502q0 -93 27 -140.5t98 -47.5q22 0 40.5 4.5t32.5 9.5t24.5 9.5t17.5 4.5q6 0 10 -2.5t6.5 -9.5t4.5 -19t2 -30q0 -29 -4 -46t-12.5 -25t-23.5 -15t-35.5 -11.5t-44 -7.5t-45.5 -3
q-71 0 -121 18.5t-81.5 56t-46.5 95t-15 135.5v526h-447zM1851 -175q0 -106 -52 -162t-141 -56q-37 0 -66 9.5t-53 24.5t-44 32t-39.5 32t-38.5 24.5t-41 9.5q-40 0 -56 -29t-16 -77q0 -7 -2 -12.5t-8.5 -8.5t-19 -4t-31.5 -1q-16 0 -27 1.5t-17.5 6t-9.5 13t-3 21.5
q0 99 50 158t143 59q54 0 93 -20.5t70.5 -45t59 -45.5t59.5 -21q36 0 54.5 26.5t18.5 78.5q0 16 10.5 21.5t45.5 5.5q37 0 49 -7.5t12 -33.5zM1057 -538zM1619 1229q0 -58 -22 -79t-81 -21q-58 0 -79.5 20.5t-21.5 77.5q0 58 22 79t81 21q58 0 79.5 -20.5t21.5 -77.5z
M1282 951z" />
    <glyph glyph-name="t_t_uni1E2F.liga" unicode="tt&#x1e2f;" horiz-adv-x="1753" 
d="M357 814v-502q0 -93 27.5 -140.5t98.5 -47.5q23 0 41 4.5t32 9.5t24 9.5t18 4.5q5 0 9.5 -2.5t7 -9.5t4.5 -19t2 -30q0 -29 -4 -46t-12.5 -25t-24 -15t-36 -11.5t-43.5 -7.5t-46 -3q-70 0 -120 18.5t-82 56t-46.5 95t-14.5 135.5v526h-126q-15 0 -24 16t-9 52
q0 19 2.5 32t6.5 21.5t10.5 12t14.5 3.5h125v214q0 7 3.5 13t13 10.5t25.5 6.5t40 2q25 0 41 -2t25 -6.5t13 -10.5t4 -13v-214h447v257q0 8 4 14t13.5 9.5t25.5 6t40 2.5t40 -2.5t25.5 -6t13.5 -9.5t4 -14v-257h579q29 0 40.5 -13.5t11.5 -39.5v-873q0 -8 -4 -13.5
t-13.5 -9.5t-25.5 -6t-41 -2q-23 0 -39 2t-26 6t-13.5 9.5t-3.5 13.5v789h-465v-502q0 -93 27 -140.5t98 -47.5q22 0 40.5 4.5t32.5 9.5t24.5 9.5t17.5 4.5q6 0 10 -2.5t6.5 -9.5t4.5 -19t2 -30q0 -29 -4 -46t-12.5 -25t-23.5 -15t-35.5 -11.5t-44 -7.5t-45.5 -3
q-71 0 -121 18.5t-81.5 56t-46.5 95t-15 135.5v526h-447zM1587 1621q12 22 33.5 29.5t69.5 7.5q56 0 69.5 -13.5t-2.5 -32.5l-160 -199q-8 -10 -14.5 -16t-15.5 -9.5t-21.5 -5t-33.5 -1.5q-44 0 -53.5 10.5t4.5 32.5zM1410 1215q0 -56 -21 -77t-77 -21t-76 20.5t-20 75.5
q0 56 20.5 76.5t76.5 20.5t76.5 -20t20.5 -75zM1823 1215q0 -56 -20.5 -77t-77.5 -21q-55 0 -75.5 20.5t-20.5 75.5q0 56 21 76.5t76 20.5q57 0 77 -20t20 -75zM1117 951z" />
    <glyph glyph-name="t_t_uni0268.liga" unicode="tt&#x268;" horiz-adv-x="1753" 
d="M357 814v-502q0 -93 27.5 -140.5t98.5 -47.5q23 0 41 4.5t32 9.5t24 9.5t18 4.5q5 0 9.5 -2.5t7 -9.5t4.5 -19t2 -30q0 -29 -4 -46t-12.5 -25t-24 -15t-36 -11.5t-43.5 -7.5t-46 -3q-70 0 -120 18.5t-82 56t-46.5 95t-14.5 135.5v526h-126q-15 0 -24 16t-9 52
q0 19 2.5 32t6.5 21.5t10.5 12t14.5 3.5h125v214q0 7 3.5 13t13 10.5t25.5 6.5t40 2q25 0 41 -2t25 -6.5t13 -10.5t4 -13v-214h447v257q0 8 4 14t13.5 9.5t25.5 6t40 2.5t40 -2.5t25.5 -6t13.5 -9.5t4 -14v-257h579q29 0 40.5 -13.5t11.5 -39.5v-873q0 -8 -4 -13.5
t-13.5 -9.5t-25.5 -6t-41 -2q-23 0 -39 2t-26 6t-13.5 9.5t-3.5 13.5v789h-465v-502q0 -93 27 -140.5t98 -47.5q22 0 40.5 4.5t32.5 9.5t24.5 9.5t17.5 4.5q6 0 10 -2.5t6.5 -9.5t4.5 -19t2 -30q0 -29 -4 -46t-12.5 -25t-23.5 -15t-35.5 -11.5t-44 -7.5t-45.5 -3
q-71 0 -121 18.5t-81.5 56t-46.5 95t-15 135.5v526h-447zM1619 1229q0 -58 -22 -79t-81 -21q-58 0 -79.5 20.5t-21.5 77.5q0 58 22 79t81 21q58 0 79.5 -20.5t21.5 -77.5zM1282 951zM1303 449q-8 0 -14 3.5t-10.5 11t-6.5 20t-2 29.5q0 18 2 30.5t6.5 19.5t10.5 10.5t14 3.5
h434q7 0 13 -3.5t10.5 -10.5t6.5 -19.5t2 -30.5q0 -17 -2 -29.5t-6.5 -20t-10 -11t-13.5 -3.5h-434z" />
    <glyph glyph-name="f_f_uni0237.liga" unicode="ff&#x237;" horiz-adv-x="1654" 
d="M766 1048q0 93 18.5 159.5t53.5 109.5t87.5 63.5t120.5 20.5q24 0 46 -2t40 -6t30.5 -8.5t17.5 -9.5t8 -10.5t5 -13.5t3 -20t1 -29q0 -32 -5 -46t-18 -14q-7 0 -15.5 3.5t-21 7.5t-31 7.5t-46.5 3.5q-69 0 -98.5 -51t-29.5 -163v-99h519q26 0 39 -13.5t13 -37.5v-948
q0 -72 -12.5 -130t-43.5 -99.5t-83 -64.5t-131 -23q-22 0 -42 2t-38 6t-32 10t-19.5 10.5t-8 10t-4 13t-2.5 16.5t-1 24q0 18 1.5 31.5t5 21.5t8.5 11.5t11 3.5q9 0 16.5 -3t19 -6.5t28 -6.5t42.5 -3q29 0 51.5 9.5t37.5 32t22.5 59t7.5 89.5v848h-405v-789q0 -8 -4 -13.5
t-13.5 -9.5t-25.5 -6t-40 -2t-40 2t-25.5 6t-13.5 9.5t-4 13.5v789h-404v-789q0 -8 -4 -13.5t-13.5 -9.5t-25.5 -6t-40 -2t-40 2t-25.5 6t-13.5 9.5t-4 13.5v789h-127q-16 0 -24 16t-8 52q0 19 2 32t6 21.5t10 12t14 3.5h127v85q0 93 18 159.5t54 109.5t89.5 63.5
t124.5 20.5q44 0 77 -7.5t48.5 -14t21.5 -12.5t10 -15.5t5.5 -23t1.5 -32.5q0 -32 -5 -46.5t-18 -14.5q-8 0 -18.5 4.5t-26.5 10t-36 10t-46 4.5q-74 0 -104 -51t-30 -163v-87h404v97z" />
    <glyph glyph-name="uniFEDF_uniFEE0_uniFEEA.liga" unicode="&#xfedf;&#xfee0;&#xfeea;" horiz-adv-x="1836" 
d="M1124 1405q2 6 7.5 9t20.5 3q24 0 24 -10q0 -16 -3.5 -40t-8.5 -41q8 -5 20 -11t27 -6q20 0 35 14.5t25 36.5t16 48t9 49q1 10 8.5 13t21.5 3q21 0 21 -14q0 -38 -6.5 -81t-23.5 -80t-45.5 -61t-72.5 -24q-27 0 -44.5 11t-26.5 20q-8 -13 -18.5 -27t-25 -26t-35 -19.5
t-48.5 -7.5q-15 0 -28 4t-23.5 14.5t-16.5 29t-6 48.5q0 15 2.5 31.5t7 31.5t10.5 27.5t12 19.5q5 9 24 9q8 0 14 -2.5t6 -8.5q0 -5 -2.5 -12.5t-5 -16.5t-5 -17.5t-2.5 -15.5q0 -17 7.5 -29t30.5 -12t39 15t27.5 37t18.5 46t13 42zM1180 1479q-2 -7 -6 -8.5t-18 -1.5
q-17 0 -17 10q0 18 -0.5 40t-2 44.5t-5 45t-10.5 42.5q-13 33 -28.5 54.5t-37.5 43.5q-4 4 -4 19q0 9 2 27t5.5 35.5t8.5 30.5t10 13q9 0 17 -9q54 -54 77 -124.5t23 -146.5q0 -14 -1 -30t-3 -31.5t-4.5 -29.5t-5.5 -24zM1743 461q0 -38 -8 -79t-20 -78.5t-26.5 -67
t-27.5 -44.5q-20 -21 -53.5 -33t-68.5 -14q-43 -3 -89 5t-88.5 30t-79 60.5t-60.5 98.5h-6q-25 -108 -108.5 -165.5t-209.5 -57.5q-66 0 -118 16.5t-88.5 51.5t-56.5 89t-20 129h-6q-16 -21 -35.5 -43t-40.5 -40t-41.5 -29.5t-38.5 -11.5q-37 0 -79.5 2.5t-84.5 8.5
t-81 16.5t-69 26.5t-47 39t-15 54q1 21 14.5 51t33 61.5t41.5 59.5t40 45q14 15 48.5 37.5t86.5 51t119.5 61t147.5 67.5v26t2 26q5 37 51 95q17 22 30 35.5t21 13.5q12 0 12 -13q0 -66 -1 -125.5t0 -107.5q2 -80 3.5 -159t5.5 -160q2 -56 19 -92.5t45 -58.5t65.5 -31
t80.5 -9q46 0 89 10.5t77 31t55.5 50.5t23.5 70q0 19 -5.5 58.5t-14 88.5t-18.5 102.5t-18.5 101.5t-14 85.5t-5.5 53.5q0 23 12 53.5t31 68.5q14 26 26.5 43.5t22.5 17.5q13 0 16 -13q22 -157 44.5 -302.5t48.5 -293.5q10 -54 33 -92t55 -62.5t70.5 -35.5t80.5 -11
q23 0 47.5 5.5t37.5 21.5q0 21 -7.5 73.5t-19 120t-24.5 142.5t-24.5 141t-19 115.5t-7.5 65.5q0 21 11 52t26 59.5t30.5 49t24.5 20.5q13 0 15 -13q8 -65 19 -137.5t22 -144.5t22 -140.5t19.5 -126.5t14 -101.5t5.5 -65.5zM609 491q0 42 -0.5 91t-0.5 98q0 24 0.5 47.5
t0.5 46.5h-3q-17 -20 -39.5 -38t-43.5 -29q-52 -27 -98.5 -53.5t-84.5 -51.5t-66.5 -46t-44.5 -37q17 -18 43 -31.5t56 -21.5t62 -11.5t62 -3.5q36 0 77 8.5t80 31.5z" />
    <glyph glyph-name="uniFEDF_uniFEE0_uniFEEA.liga" unicode="&#xfedf;&#xfee0;&#xfeea;" horiz-adv-x="1836" 
d="M1743 461q0 -38 -8 -79t-20 -78.5t-26.5 -67t-27.5 -44.5q-20 -21 -53.5 -33t-68.5 -14q-43 -3 -89 5t-88.5 30t-79 60.5t-60.5 98.5h-6q-25 -108 -108.5 -165.5t-209.5 -57.5q-66 0 -118 16.5t-88.5 51.5t-56.5 89t-20 129h-6q-16 -21 -35.5 -43t-40.5 -40t-41.5 -29.5
t-38.5 -11.5q-37 0 -79.5 2.5t-84.5 8.5t-81 16.5t-69 26.5t-47 39t-15 54q1 21 14.5 51t33 61.5t41.5 59.5t40 45q14 15 48.5 37.5t86.5 51t119.5 61t147.5 67.5v26t2 26q5 37 51 95q17 22 30 35.5t21 13.5q12 0 12 -13q0 -66 -1 -125.5t0 -107.5q2 -80 3.5 -159t5.5 -160
q2 -56 19 -92.5t45 -58.5t65.5 -31t80.5 -9q46 0 89 10.5t77 31t55.5 50.5t23.5 70q0 19 -5.5 58.5t-14 88.5t-18.5 102.5t-18.5 101.5t-14 85.5t-5.5 53.5q0 23 12 53.5t31 68.5q14 26 26.5 43.5t22.5 17.5q13 0 16 -13q22 -157 44.5 -302.5t48.5 -293.5q10 -54 33 -92
t55 -62.5t70.5 -35.5t80.5 -11q23 0 47.5 5.5t37.5 21.5q0 21 -7.5 73.5t-19 120t-24.5 142.5t-24.5 141t-19 115.5t-7.5 65.5q0 21 11 52t26 59.5t30.5 49t24.5 20.5q13 0 15 -13q8 -65 19 -137.5t22 -144.5t22 -140.5t19.5 -126.5t14 -101.5t5.5 -65.5zM609 491
q0 47 -0.5 95.5t-0.5 93.5q0 24 0.5 47.5t0.5 46.5h-3q-17 -20 -39.5 -38t-43.5 -29q-52 -27 -98.5 -53.5t-84.5 -51.5t-66.5 -46t-44.5 -37q17 -18 43 -31.5t56 -21.5t62 -11.5t62 -3.5q36 0 77 8.5t80 31.5z" />
    <glyph glyph-name="uniFEDF_uniFE8E.rlig" unicode="&#xfedf;&#xfe8e;" horiz-adv-x="1112" 
d="M880 1496q6 8 12 8q10 0 10 -9q2 -20 6.5 -36t15 -32.5t28 -36t46.5 -47.5q14 -12 18 -21t4 -20q0 -13 -6 -32t-15 -37t-20 -32.5t-21 -18.5q5 -57 11.5 -117t12 -118.5t9.5 -112.5t4 -99q0 -50 -7 -115t-31 -137t-68.5 -145t-119.5 -139q-72 -63 -156.5 -98t-189.5 -54
q-32 -6 -72 -12.5t-80 -12t-75.5 -8.5t-58.5 -3q-10 0 -14.5 12t-4.5 33q0 15 4 21.5t12 8.5q78 21 155 47.5t149.5 59t138.5 71t123 83.5q-9 40 -20 80.5t-29 86t-46.5 99.5t-73.5 122q-42 60 -91 120t-115 118l-14 -37q-6 -15 -18 -17q-11 -2 -20 6q-58 36 -98.5 64.5
t-66 55.5t-37.5 54.5t-12 60.5q0 36 10.5 74t27.5 67q7 13 16 20.5t21 7.5q14 0 43.5 -18t67 -49t80.5 -72.5t85.5 -87.5t81.5 -94t69 -93q56 -85 93 -158.5t60 -137t34.5 -118t16.5 -102.5q38 39 62.5 73t39 66.5t20 64t5.5 66.5q0 18 -3.5 54.5t-9 82.5t-12.5 99
t-13.5 104.5t-11.5 97.5t-8 80q-1 12 -0.5 23t1.5 22q-16 16 -25 41t-9 49q0 37 22 81.5t57 92.5z" />
    <glyph glyph-name="uniFEE0_uniFE8E.rlig" unicode="&#xfee0;&#xfe8e;" horiz-adv-x="1266" 
d="M1266 160q-41 0 -82.5 8.5t-78.5 32t-65 65t-41 107.5q-21 96 -28 186t-17 179h-5q-7 -57 -20.5 -122.5t-38.5 -133t-62.5 -134t-91.5 -125.5q-58 -67 -137.5 -106t-170.5 -62q-33 -8 -73 -16t-80 -14t-76 -10t-61 -4q-19 0 -19 46q0 14 3.5 20.5t11.5 8.5
q77 20 155.5 50t152 70t139 90t117.5 110q-17 76 -50 153t-81 152.5t-109 147t-134 136.5l-14 -39q-6 -14 -18 -15q-8 -2 -20 6q-57 36 -97.5 65.5t-66 57t-37.5 54.5t-12 59q0 20 3.5 41t9.5 41t14 38t17 31q12 15 25 16q10 1 21 -5q41 -26 92.5 -65.5t106.5 -90.5
t110 -112t104 -131q48 -69 82 -134t57.5 -126t37.5 -116.5t20 -105.5q33 46 62 105t50 135t33.5 172.5t13.5 218.5q-3 54 -5.5 108.5t-4.5 108.5q0 29 12 57.5t32 60.5q15 24 29 41t24 17q12 0 14 -14q17 -211 33.5 -425.5t36.5 -432.5q8 -89 26.5 -144t44 -86.5t57 -42.5
t65.5 -11z" />
    <glyph glyph-name="uniFEB3_uniFEAE.liga" unicode="&#xfeb3;&#xfeae;" horiz-adv-x="2055" 
d="M1842 590q0 11 6.5 30.5t26.5 49.5q17 26 26.5 38.5t17.5 12.5q6 0 10 -3.5t6 -8.5q7 -16 14.5 -40t14 -52t10.5 -58.5t4 -59.5q0 -54 -13.5 -110t-41.5 -110q-25 -43 -54 -66t-59 -23q-31 0 -68.5 13t-73.5 33t-65 43.5t-44 43.5q-49 -67 -127 -109t-170 -42
q-86 0 -133.5 48t-61.5 128l-9 6q-60 -28 -133.5 -49.5t-146.5 -38.5q-4 -68 -22 -138t-48 -135t-70 -121.5t-89 -99t-105 -67t-117 -24.5q-27 0 -60.5 5.5t-70.5 16t-76.5 26.5t-77.5 38q-13 7 -21 13t-12.5 13.5t-6.5 17.5t-2 26q0 41 19 41q9 0 27 -9.5t43 -21.5
t56 -21.5t64 -9.5q59 0 116 20t108 52.5t94.5 74.5t77 86.5t55.5 87.5t29 78q-9 6 -21 12.5t-22.5 14t-18 16t-7.5 16.5q0 17 2.5 41.5t7 47t11.5 39.5t16 19q56 12 121 27.5t130 34.5t125.5 40t107.5 42q17 0 31.5 -6.5t14.5 -20.5q0 -11 -7 -24t-13 -25q8 -64 40.5 -103
t85.5 -39q73 0 124 27.5t86 71.5q13 17 25 40.5t22 50t18 52.5t14 47q2 8 11 12.5t36 4.5q23 0 31 -4t8 -13q0 -13 -3.5 -32.5t-8.5 -40.5t-10.5 -42t-10.5 -36q8 -26 32 -49.5t53.5 -41.5t60 -29t52.5 -11q54 0 54 85q0 29 -7 54.5t-15.5 45.5t-15.5 33t-7 18z" />
    <glyph glyph-name="uniFEB4_uniFEAE.liga" unicode="&#xfeb4;&#xfeae;" horiz-adv-x="2150" 
d="M1877 588q2 11 12 21.5t36 23.5q23 12 32.5 14t13.5 -4q3 -4 3 -15q-2 -33 -7.5 -69.5t-12.5 -73.5q12 -36 29.5 -64t42.5 -48t59.5 -30.5t80.5 -10.5l-16 -172q-31 0 -64.5 5t-65.5 20.5t-60.5 44t-50.5 76.5h-5q-11 -29 -24.5 -58t-31 -52.5t-40 -38.5t-50.5 -15
q-32 0 -62 13t-56 35t-49 49t-41 56q-23 -33 -55.5 -59.5t-71 -46t-82.5 -30t-90 -10.5q-41 0 -72.5 14t-54 38.5t-36.5 58.5t-21 75l-9 6q-60 -28 -133.5 -50t-146.5 -38q-4 -67 -22 -135t-48 -131.5t-70 -119t-89 -96.5t-105 -65t-117 -24q-27 0 -60.5 5.5t-70.5 16
t-76.5 26.5t-77.5 37q-13 7 -21 13t-12.5 13.5t-6.5 17.5t-2 26q0 41 19 41q9 0 27 -9.5t43 -21.5t56 -21.5t64 -9.5q59 0 115.5 19.5t107.5 51t95 72t77.5 83.5t55.5 85t29 75q-9 6 -21 12.5t-22.5 14t-18 15.5t-7.5 16q0 18 2.5 43t7 47.5t11.5 39t16 18.5q57 11 122 27
t129.5 34.5t124.5 39.5t108 43q17 0 31.5 -6.5t14.5 -20.5q0 -11 -6.5 -24t-13.5 -25q8 -69 38 -111.5t82 -42.5q74 0 126 28t84 69q13 16 25 37.5t22 44.5t18.5 46.5t14.5 45.5q2 8 11 12.5t35 4.5q23 0 31.5 -3.5t8.5 -12.5q0 -13 -3 -30.5t-7.5 -36.5t-10 -37t-10.5 -32
q6 -24 20.5 -48.5t34 -44t41 -32t41.5 -12.5q26 0 46 30.5t35 88.5q9 33 15 72t12 76z" />
    <glyph glyph-name="uniFEBB_uniFEAE.liga" unicode="&#xfebb;&#xfeae;" horiz-adv-x="2360" 
d="M1432 304q15 -2 32.5 -3.5t34.5 -3.5q42 -2 86.5 -2t91.5 3q72 4 142 13t133 23.5t115.5 33.5t89.5 43q2 10 0.5 20.5t-3.5 21.5q-8 33 -30 63t-53.5 53.5t-69.5 37t-78 13.5q-43 0 -102 -24t-125 -66t-134.5 -100t-129.5 -126zM1325 138q-22 -38 -46 -91.5t-46 -108.5
q-7 -18 -17 -23t-33 -5q-34 0 -34 18q0 12 8.5 41t20.5 63.5t25.5 68.5t24.5 56q-33 9 -63.5 21.5t-56 33.5t-45.5 52.5t-33 77.5q-54 -25 -118.5 -42t-133.5 -34q-4 -68 -22 -137.5t-48 -134.5t-70 -122t-89 -99t-105 -66.5t-117 -24.5q-27 0 -60.5 5.5t-70.5 16
t-76.5 26.5t-77.5 37q-13 8 -21 14t-12.5 13t-6.5 17t-2 26q0 42 19 42q9 0 27 -10t43 -21.5t56 -21.5t64 -10q59 0 116 20t108 53t94.5 75t77 86.5t55.5 87.5t29 77q-9 6 -21 12.5t-22.5 14t-18 15.5t-7.5 16q0 18 2.5 43t7 47.5t11.5 39t16 18.5q57 12 117 26.5
t119.5 31.5t115.5 35.5t104 39.5q17 0 31.5 -7t14.5 -21q0 -11 -7.5 -24.5t-12.5 -24.5q4 -38 19.5 -65.5t39.5 -46t56 -29.5t70 -16q39 44 87.5 95.5t103 102t114.5 97.5t122.5 82.5t125.5 57t125 21.5q51 0 101.5 -23t90 -58t64.5 -77t25 -80q0 -51 -13.5 -97t-34 -85
t-45.5 -69t-48 -48q-61 -31 -130.5 -53.5t-143 -36.5t-149 -21t-148.5 -7q-71 0 -132.5 4.5t-113.5 12.5z" />
    <glyph glyph-name="uniFEBC_uniFEAE.liga" unicode="&#xfebc;&#xfeae;" horiz-adv-x="2397" 
d="M1325 149q-22 -37 -45.5 -90.5t-45.5 -108.5q-8 -19 -17.5 -24t-32.5 -5q-35 0 -35 19q0 12 8.5 40.5t20.5 63t26 68t25 55.5q-34 9 -64.5 21t-56 31.5t-45.5 48.5t-33 73q-54 -25 -118.5 -42.5t-133.5 -33.5q-4 -68 -22 -137.5t-48 -134.5t-70 -122t-89 -99t-105 -66.5
t-117 -24.5q-27 0 -60.5 5.5t-70.5 16t-76.5 26.5t-77.5 37q-13 8 -21 14t-12.5 13t-6.5 17t-2 26q0 42 19 42q9 0 27 -10t43 -21.5t56 -21.5t64 -10q59 0 116 20t108 53t94.5 75t77 86.5t55.5 87.5t29 77q-9 5 -21 12t-22.5 14.5t-18 15.5t-7.5 16q0 19 2.5 43.5t7 47
t11.5 39t16 18.5q57 12 117 27t119.5 31.5t115.5 35t104 39.5q17 0 31.5 -7t14.5 -21q0 -11 -7.5 -24.5t-12.5 -24.5q4 -36 19.5 -61.5t39.5 -42.5t56 -27.5t70 -14.5q39 44 87.5 95t103 102t114.5 97.5t122.5 82.5t125.5 57.5t125 21.5q51 0 101.5 -23t90 -58t64.5 -77
t25 -80q0 -37 -8 -70.5t-20.5 -61.5t-27 -49.5t-27.5 -34.5l10 -4q35 2 85 3t118 1l-16 -171q-55 0 -110 1t-105 4.5t-91.5 11.5t-69.5 22q-113 -35 -226 -51.5t-224 -16.5q-72 0 -132 4.5t-114 12.5zM1499 307q88 -5 184 0.5t185.5 20.5t165 38.5t123.5 53.5q2 11 0.5 21
t-3.5 22q-8 33 -30 63t-53.5 53.5t-69.5 37t-78 13.5q-43 0 -102 -24t-125 -66t-134.5 -100t-129.5 -127z" />
    <glyph glyph-name="uniFEA3_uniFEF0.liga" unicode="&#xfea3;&#xfef0;" horiz-adv-x="2006" 
d="M934 594q-8 0 -11 5.5t-3 23.5q0 16 1.5 25t5.5 16q39 73 89.5 112t125.5 39q42 0 84.5 -9t86 -23.5t89.5 -33.5t96 -39q128 -53 241 -86t227 -33q14 0 14 -13q0 -10 -4 -26.5t-18 -45.5q-35 -80 -55 -80q-26 0 -60 7t-67 7q-44 0 -98 -7.5t-110 -19t-111 -25t-100 -25.5
q-67 -18 -128.5 -36.5t-115.5 -36.5t-99 -34.5t-78 -31.5q36 -13 88 -29t101 -37t83.5 -47.5t34.5 -60.5q0 -23 -5.5 -47.5t-14.5 -49.5t-20.5 -48.5t-23.5 -43.5q-39 -42 -106.5 -83.5t-153.5 -75t-186 -54t-205 -20.5q-126 0 -212.5 34t-140 90.5t-76.5 129t-23 150.5
q0 61 10 118.5t24.5 107.5t31.5 92t32 72q12 23 23.5 31t39.5 8q40 0 40 -19q0 -9 -12 -38t-26 -70.5t-26 -92.5t-12 -103q0 -81 26 -142.5t74 -102t116.5 -61t153.5 -20.5q81 0 166.5 15.5t163.5 42.5t142 62.5t102 74.5q-4 13 -25.5 24.5t-55 22t-74.5 19.5t-83 17.5
t-81 17t-68 17.5q-9 8 -12.5 17t-1.5 25q1 9 5.5 23.5t11 30.5t14 32t14.5 27q12 22 39.5 39t56.5 29q134 52 295 96t356 76v5q-55 16 -110 38t-109 41t-107 32.5t-105 13.5q-46 0 -74 -9t-45.5 -19.5t-28.5 -19t-23 -8.5z" />
    <glyph glyph-name="uniFEA4_uniFEF0.liga" unicode="&#xfea4;&#xfef0;" horiz-adv-x="2099" 
d="M2099 160q-66 0 -126.5 4t-119.5 17q-88 17 -143.5 60t-66.5 120q-4 33 -1 65.5t8 68.5l-5 7q-74 -12 -151.5 -30t-136.5 -35q-68 -19 -130.5 -38t-117.5 -37.5t-100.5 -36t-78.5 -32.5q38 -13 91.5 -29.5t103 -38.5t84 -49.5t34.5 -61.5q0 -23 -5.5 -48t-14.5 -49.5
t-20.5 -49t-23.5 -45.5q-39 -42 -106.5 -83.5t-153.5 -75t-186 -54t-205 -20.5q-126 0 -212.5 33.5t-140 89.5t-76.5 128.5t-23 150.5q0 61 10 119t24.5 108.5t31.5 92.5t32 72q12 23 23.5 31t39.5 8q40 0 40 -20q0 -8 -12 -37t-26 -71t-26 -92.5t-12 -102.5q0 -81 26 -142
t74 -102.5t116.5 -62t153.5 -20.5q82 0 167.5 16t163 43t141 62.5t102.5 75.5q-5 14 -27 26t-55 22t-74 19t-82.5 17.5t-80.5 17t-68 17.5q-15 13 -14 42q1 9 6 24t11.5 31t13.5 32.5t14 28.5q13 21 39.5 39t56.5 32q132 54 291.5 98.5t353.5 78.5v7q-55 17 -108 38
t-105.5 40t-105 31.5t-106.5 12.5q-46 0 -74 -9t-45.5 -19.5t-28.5 -19.5t-23 -9q-8 0 -11 6t-3 23q0 16 2 25.5t5 15.5q39 73 89.5 112t125.5 39q43 0 85.5 -9t86 -23t89 -33t95.5 -38q65 -26 124.5 -47.5t116.5 -37t113 -24.5t114 -9q14 0 14 -13q0 -9 -4 -26t-17 -45
q-35 -79 -54 -79q-26 0 -51.5 5.5t-50.5 7.5q-19 0 -38 -1t-40 -3q2 -50 24.5 -84t69.5 -55.5t120 -31t176 -9.5z" />
    <glyph glyph-name="uniFEB3_uniFEF0.liga" unicode="&#xfeb3;&#xfef0;" horiz-adv-x="2231" 
d="M1759 715q2 8 10.5 12.5t35.5 4.5q23 0 30.5 -4t7.5 -12q0 -13 -3 -32.5t-8 -40.5t-11 -42t-11 -36q9 -26 33 -50t53.5 -42t60 -29t52.5 -11q28 0 40.5 23t12.5 63q0 28 -7 53.5t-15 45.5t-15 33t-7 18q0 11 6.5 30.5t26.5 49.5q17 27 27 39t17 12q9 0 15 -12
q7 -17 15 -40.5t15 -51t11 -57.5t4 -60q0 -48 -12 -102t-34 -100.5t-53.5 -77t-69.5 -30.5q-32 0 -70.5 14t-74.5 34t-64.5 43.5t-41.5 41.5q-43 -69 -114 -110.5t-162 -41.5q-44 0 -75.5 11.5t-55 32t-41 49t-34.5 62.5q-14 25 -26.5 48t-29 40.5t-39 27.5t-55.5 10
q-68 0 -129 -21.5t-107.5 -51.5t-73.5 -61.5t-27 -50.5q0 -40 51.5 -64t160.5 -44q49 -10 85.5 -21t60.5 -28t35.5 -43t11.5 -66q0 -20 -5 -44t-12.5 -49.5t-17 -50t-19.5 -44.5q-53 -57 -121 -106.5t-147 -86t-165.5 -57t-174.5 -20.5q-126 0 -209.5 37.5t-133 97.5
t-70 135.5t-20.5 151.5q0 55 9 108t23 102.5t31.5 93.5t34.5 80q12 23 23.5 31t40.5 8q39 0 39 -20q0 -8 -12 -37t-26 -71t-26 -93t-12 -105q0 -85 25.5 -148t72 -105t113 -62.5t149.5 -20.5q61 0 133.5 17.5t142.5 47.5t131.5 71t101.5 89q0 9 -8 17.5t-28.5 16.5t-55 16.5
t-86.5 16.5q-44 7 -85 17t-72.5 27t-50.5 45t-19 72q0 52 20.5 105t55.5 102.5t81.5 92.5t98.5 75.5t106.5 51t105.5 18.5q47 0 81 -15t59 -38t42.5 -52t31.5 -57q34 -65 70 -91.5t83 -26.5q54 0 96 21.5t73.5 60.5t53 92.5t36.5 117.5z" />
    <glyph glyph-name="uniFEB4_uniFEF0.liga" unicode="&#xfeb4;&#xfef0;" horiz-adv-x="2369" 
d="M1768 295q-42 -53 -113.5 -89t-176.5 -36q-47 0 -81 13.5t-60 36t-45.5 53t-35.5 65.5q-14 27 -26.5 50t-29.5 40t-40.5 27t-57.5 10q-68 0 -128.5 -21.5t-107 -50.5t-73.5 -59.5t-27 -49.5q0 -40 51.5 -63.5t160.5 -43.5q49 -9 85 -19.5t59.5 -27t35 -41.5t11.5 -62
q0 -18 -4.5 -41t-12 -46.5t-17 -47t-19.5 -42.5q-52 -55 -119.5 -101.5t-145.5 -81t-164.5 -54t-177.5 -19.5q-126 0 -209.5 37.5t-133 97.5t-70 135.5t-20.5 150.5q0 55 9 108.5t23 103t31.5 94t34.5 80.5q12 22 23.5 30t40.5 8q39 0 39 -19q0 -9 -12 -37.5t-26 -70.5
t-26 -93.5t-12 -104.5q0 -86 25.5 -149t72 -105t113 -62.5t149.5 -20.5q64 0 136.5 16.5t141.5 45t129.5 67.5t100.5 84q0 8 -8 16.5t-28.5 16.5t-54.5 15.5t-86 15.5q-45 7 -86 16t-72.5 25.5t-50 42.5t-18.5 68q0 50 20.5 101t55.5 99t81.5 90.5t98.5 74t106.5 49.5
t105.5 18q48 0 82 -15.5t59.5 -40t44 -55t35.5 -60.5q32 -56 68 -91t92 -35q66 0 113 19t79 52.5t53.5 79.5t36.5 101q2 8 11 12.5t35 4.5q23 0 31.5 -3.5t8.5 -12.5q0 -13 -3 -30.5t-7.5 -36.5t-10 -37t-9.5 -33q6 -25 20.5 -49t33.5 -43.5t40.5 -31.5t41.5 -12
q26 0 46 30.5t35 88.5q11 39 17 80.5t10 67.5q2 11 11.5 21.5t36.5 23.5q23 12 32.5 14t12.5 -4q5 -5 3 -15q-2 -30 -7.5 -67.5t-11.5 -75.5q12 -36 29.5 -64t42.5 -48t59.5 -30.5t80.5 -10.5l-16 -172q-31 0 -64.5 5t-65.5 20.5t-60.5 44t-50.5 76.5h-4q-28 -74 -63.5 -119
t-83.5 -45q-33 0 -63.5 13.5t-57 35t-48.5 49t-40 55.5z" />
    <glyph glyph-name="uniFEBB_uniFEF0.liga" unicode="&#xfebb;&#xfef0;" horiz-adv-x="2505" 
d="M1578 399q16 -2 32.5 -3.5t34.5 -3.5q42 -2 87 -1.5t91 2.5q72 4 142 13t133 23.5t116 33.5t90 43q2 10 1.5 20.5t-5.5 21.5q-7 33 -29 63t-53.5 53.5t-70 37t-78.5 13.5q-43 0 -101.5 -23.5t-124.5 -65.5t-134.5 -100t-130.5 -127zM1467 237q-18 -28 -38 -71.5
t-35 -80.5q-8 -18 -17.5 -23t-32.5 -5q-20 0 -27.5 4t-7.5 14q0 11 7 34t18 50t23 53.5t23 46.5q-21 5 -40 18.5t-36 32.5t-32 42t-27 47q-12 25 -24 48t-27.5 40.5t-37 27.5t-53.5 10q-68 0 -129 -21.5t-107.5 -51.5t-73.5 -62t-27 -52q0 -40 52 -63.5t162 -44.5
q49 -9 85 -20t59.5 -28t35 -42.5t11.5 -64.5q0 -19 -5 -43t-13.5 -49t-19 -49.5t-20.5 -44.5q-54 -57 -125 -106t-150 -84.5t-163.5 -56t-165.5 -20.5q-126 0 -209.5 37.5t-133 97.5t-70 135.5t-20.5 151.5q0 55 9 108t23 102.5t31.5 93.5t34.5 80q12 23 23.5 31t40.5 8
q39 0 39 -20q0 -8 -12 -37t-26 -71t-26 -93t-12 -105q0 -85 25.5 -148t72 -105t113 -62.5t149.5 -20.5q54 0 123.5 17t141 47t136 70.5t108.5 87.5q0 9 -8.5 17.5t-28.5 16.5t-54.5 16.5t-86.5 16.5q-44 7 -85 16.5t-72.5 26.5t-50.5 44.5t-19 71.5q0 51 20.5 104t55.5 102
t81.5 92.5t98.5 75.5t106 50.5t105 18.5q45 0 78 -14.5t57 -38t40.5 -51.5t29.5 -55q22 -44 55 -78.5t80 -42.5q39 43 87 93.5t103 101t115 97.5t122.5 83t125.5 57.5t124 21.5q51 0 101 -23t89.5 -58t64.5 -76.5t25 -79.5q0 -51 -13.5 -97t-34 -85t-45.5 -69t-48 -49
q-61 -31 -130.5 -53t-143 -36.5t-149 -21t-147.5 -6.5q-73 0 -135 5t-116 16z" />
    <glyph glyph-name="uniFEBC_uniFEF0.liga" unicode="&#xfebc;&#xfef0;" horiz-adv-x="2511" 
d="M1563 338q31 -5 66 -6q42 -4 86 -3t89 4q70 4 139.5 13t131.5 23t114 33t88 43q1 14 -2 37q-6 34 -28 65.5t-53.5 55.5t-70 38t-77.5 14q-42 0 -100 -24t-123 -66.5t-132.5 -100.5t-127.5 -126zM1450 177q-9 -14 -19 -33t-19.5 -39.5t-18 -41.5t-15.5 -39q-7 -17 -17 -23
t-33 -6q-20 0 -27 4.5t-7 15.5t7 33.5t17.5 49.5t22.5 53.5t23 46.5q-21 4 -40 17.5t-36 33t-31.5 43t-26.5 46.5q-12 25 -23.5 47.5t-27 40t-37 27.5t-52.5 10q-67 0 -127.5 -21t-106 -49.5t-72.5 -58.5t-27 -49q0 -39 51.5 -61.5t160.5 -41.5q48 -10 83.5 -20.5t59 -27
t34.5 -41t11 -62.5q0 -20 -5 -43t-13.5 -47t-18.5 -47.5t-20 -42.5q-54 -55 -123.5 -102t-147.5 -82t-161 -55t-164 -20q-125 0 -207 37.5t-131.5 97.5t-69.5 135.5t-20 151.5q0 55 9 108.5t23 102.5t31.5 93t34.5 80q12 23 23.5 31.5t40.5 8.5q39 0 39 -20q0 -9 -12 -37.5
t-26 -70.5t-26 -93.5t-12 -104.5q0 -85 25 -148.5t71 -105.5t112 -63t147 -21q53 0 122 16t139 44.5t134 66.5t108 82q0 9 -8 17t-28.5 15.5t-54.5 15t-85 15.5q-44 6 -84 15t-71.5 25t-50 42t-18.5 67q0 52 20 105t54.5 102t80.5 91.5t97 74.5t105 50t104 18q45 0 77 -14.5
t55.5 -38t40 -52t29.5 -55.5q10 -21 23.5 -41t30 -36.5t36.5 -28t43 -15.5q38 43 86 93.5t102 101t113.5 97.5t120.5 83t123.5 58t122.5 22q50 0 99.5 -23t89 -58t64 -77t24.5 -79q0 -42 -9 -78.5t-23 -66.5t-30 -53.5t-30 -38.5l6 -5q38 1 88 1h125l-16 -172q-51 0 -108 1
t-116 6q-57 5 -98.5 14.5t-79.5 28.5q-105 -29 -207 -41t-205 -12q-72 0 -132.5 4.5t-114.5 15.5z" />
    <glyph glyph-name="uniFEC3_uniFEF0.liga" unicode="&#xfec3;&#xfef0;" horiz-adv-x="2290" 
d="M2046 320q-78 -38 -168 -63.5t-188 -42.5t-202.5 -26.5t-211.5 -14.5l-301 -13v-4q4 -5 26 -10.5l52 -13t64 -17.5t63 -25.5t48 -36.5t19 -50q0 -46 -20.5 -93t-43.5 -87q-40 -39 -106.5 -76.5t-152 -67t-186 -47t-206.5 -17.5q-123 0 -210 32t-141.5 86.5t-79.5 127.5
t-25 156q0 61 10 118.5t24.5 108t31.5 92.5t32 73q12 23 23.5 31t39.5 8q38 0 38 -20q0 -8 -11.5 -37.5t-25.5 -71.5t-25.5 -92.5t-11.5 -102.5q0 -82 26.5 -143t75 -101.5t117 -61t153.5 -20.5q84 0 170 13t163.5 35.5t140.5 52.5t102 65q-4 12 -36.5 23t-78.5 21.5
t-99 20.5t-98 20t-74.5 19.5t-29.5 18.5q0 13 4 29.5t10.5 34t14.5 35t15 33.5q11 22 37.5 45t80.5 35q42 9 84 15t82.5 10.5t78 9t69.5 9.5l65 80q12 20 17 59.5t5 74.5q-3 58 -10.5 135.5t-16.5 158.5t-17 159.5t-11 140.5q-2 20 -2.5 40t0.5 38q-18 18 -26 42.5t-8 47.5
q0 19 6.5 40.5t17 44t24.5 45t30 43.5q4 5 6 7t7 2q8 0 10 -9q1 -20 6 -36t15.5 -33t28.5 -37t46 -46q14 -13 17.5 -22t3.5 -19q0 -13 -5.5 -32t-14.5 -37.5t-20 -33t-21 -18.5q2 -60 6 -131t8 -142.5t7 -138.5t4 -119q0 -30 -2.5 -61.5t-8.5 -57.5q54 55 118.5 115
t135 109.5t144.5 81.5t145 32q51 0 103 -23.5t95 -60t70 -80.5t27 -85t-13 -85t-35.5 -84.5t-53 -74t-66.5 -53.5zM1334 347q149 6 276 22t225.5 40t165.5 54.5t96 65.5q-4 23 -24.5 53t-53.5 57t-76.5 46t-94.5 19q-54 0 -118.5 -29.5t-132.5 -78.5t-135.5 -114
t-127.5 -135z" />
    <glyph glyph-name="uniFEC4_uniFEF0.liga" unicode="&#xfec4;&#xfef0;" horiz-adv-x="2320" 
d="M1333 327q149 6 276 22t225.5 40t165.5 54.5t96 65.5q-4 23 -24.5 53t-53.5 57t-76.5 46t-93.5 19q-54 0 -119 -29.5t-132.5 -78.5t-135.5 -114t-128 -135zM1896 235q-125 -36 -279.5 -53.5t-340.5 -23.5q-45 -2 -88.5 -3.5t-83.5 -2.5t-73 -2.5t-57 -2.5v-4
q6 -5 28.5 -10t52.5 -12t63.5 -17.5t62 -25.5t47 -36t18.5 -49q0 -22 -5.5 -45.5t-14.5 -46t-20.5 -44.5t-23.5 -41q-40 -39 -107 -75.5t-152.5 -65t-186 -46t-207.5 -17.5q-123 0 -209 32t-140.5 86.5t-79 127.5t-24.5 155q0 62 10 120t24.5 108t32 92t32.5 72
q6 11 11 18.5t12 12t16.5 6.5t23.5 2q21 0 30 -4.5t9 -15.5q0 -8 -11.5 -37t-26 -71t-26 -93t-11.5 -103q0 -81 26 -141.5t74.5 -101.5t117 -61.5t153.5 -20.5q84 0 170 12.5t163 35t140.5 52t102.5 64.5q-4 11 -36.5 22t-79 21.5t-99 20.5t-97.5 20t-74.5 19.5t-29.5 18.5
q0 12 4 27t10.5 31.5t14 33.5t15.5 32q10 20 37 41.5t80 32.5q42 9 84 15.5t82.5 11t78 8.5t69.5 9l66 80q11 20 16 59.5t5 74.5q-3 58 -10.5 135.5t-16.5 159t-17 160t-11 139.5q-2 23 -2.5 41.5t1.5 36.5q-18 18 -26.5 42.5t-8.5 47.5q0 19 6.5 40.5t17 44t24.5 45
t30 43.5q7 9 13 9q10 0 10 -9q1 -20 6 -36t15.5 -33t28.5 -37t46 -46q14 -13 18 -22t4 -19q0 -13 -6 -32t-15 -37.5t-20 -33t-21 -18.5q3 -60 7 -130t7.5 -140.5t6.5 -137.5t4 -123q0 -30 -2.5 -61.5t-8.5 -57.5q54 55 119 114.5t135.5 109t144 81.5t144.5 32
q51 0 103.5 -23.5t95 -59.5t69.5 -80t27 -85q0 -71 -34 -136t-94 -112l5 -4q44 -9 104.5 -11t141.5 -2l-16 -168q-63 0 -124 2t-117 8q-57 5 -102.5 20t-80.5 41z" />
    <glyph glyph-name="uniFECB_uniFEF0.liga" unicode="&#xfecb;&#xfef0;" horiz-adv-x="1851" 
d="M1595 930q17 -14 23 -27.5t6 -42.5q0 -36 -18 -36q-9 0 -26.5 9t-41.5 20.5t-54 20.5t-64 9q-49 0 -96 -12.5t-86 -32.5t-68 -45t-41 -50q4 -33 28 -71.5t61 -73.5t82.5 -61.5t91.5 -36.5q37 4 81 13.5t90.5 21t92.5 24.5t85 24q34 10 34 -17q0 -15 -6 -39t-15.5 -48
t-20 -42.5t-19.5 -20.5l-355 -95q-105 -28 -196.5 -53t-184.5 -52q58 -11 111 -27.5t93.5 -38t65 -48t24.5 -57.5q0 -22 -6 -46.5t-15 -48.5t-20.5 -47.5t-23.5 -44.5q-41 -41 -110 -82t-157 -74t-190.5 -53.5t-210.5 -20.5q-126 0 -214 32t-143.5 87t-80.5 128t-25 155
q0 62 10 119.5t24.5 108t31.5 92t32 72.5q12 23 23.5 31t39.5 8q40 0 40 -20q0 -8 -12 -37t-26 -71t-26 -93t-12 -103q0 -82 27 -143t76.5 -101.5t120 -61t157.5 -20.5q85 0 173 15.5t168 42t146 62t105 74.5q-4 14 -28.5 25.5t-61.5 21.5t-82 18.5t-91.5 17t-89.5 17.5
t-75 18q-10 8 -5 26q1 16 11 44.5t22 48.5q11 18 32.5 34.5t47.5 30.5q56 30 131.5 60t160.5 59q-22 15 -46 37t-44.5 50t-33.5 60t-13 66q0 69 30 137.5t79.5 124t112 90t128.5 34.5q39 0 73 -8.5t63.5 -22.5t54.5 -31t45 -33z" />
    <glyph glyph-name="uniFECC_uniFEF0.liga" unicode="&#xfecc;&#xfef0;" horiz-adv-x="1667" 
d="M939 502q-22 0 -22 34q0 14 3.5 37t11 46.5t18.5 44t25 29.5q41 27 92.5 46.5t117.5 19.5q48 0 99 -13t92 -35.5t67.5 -53t26.5 -64.5q0 -21 -7.5 -46t-21.5 -49.5t-35 -46.5t-49 -38q22 -21 56.5 -36t76.5 -25t91 -15t102 -5l-16 -172q-81 0 -146.5 9.5t-119 29
t-97.5 48.5t-81 67q-77 -33 -138.5 -61t-118.5 -56q54 -11 104.5 -27t88.5 -37t61 -47t23 -57q0 -23 -5.5 -47t-14.5 -48.5t-20.5 -47.5t-23.5 -43q-39 -41 -106.5 -82t-153.5 -73.5t-186 -52.5t-205 -20q-123 0 -209 32t-140 86.5t-78.5 127.5t-24.5 155q0 62 10 119.5
t24.5 108t31.5 92.5t32 72q12 23 23.5 31t39.5 8q40 0 40 -20q0 -8 -12 -37t-26 -70.5t-26 -92.5t-12 -103q0 -80 25.5 -141t73.5 -102t116.5 -62.5t154.5 -21.5q82 0 167.5 15.5t163 42t141.5 61.5t102 74q-5 13 -27.5 24.5t-56.5 21.5t-75.5 19t-84.5 18t-83.5 17.5
t-71.5 17.5q-10 8 -5 27q0 6 3.5 17t8 24.5t10 27t10.5 22.5q10 20 25.5 36t39.5 30q27 15 61 32.5t73 36t80.5 37t83.5 35.5q-16 13 -34 28t-37.5 27t-39 20t-37.5 8q-13 0 -23.5 -7t-25.5 -7z" />
    <glyph glyph-name="uniFEDB_uniFEF0.liga" unicode="&#xfedb;&#xfef0;" horiz-adv-x="1591" 
d="M1162 356q-7 -14 -19 -26t-26.5 -22t-30 -18t-28.5 -12q56 -17 103 -35.5t79 -44.5q34 -34 34 -77q0 -11 -1.5 -28t-4.5 -31q-10 -37 -24 -73t-34 -74q-58 -60 -133.5 -111.5t-163.5 -90t-186 -60.5t-202 -22q-131 0 -217.5 37t-138 96t-72.5 133.5t-21 148.5
q0 57 8.5 111t22.5 103.5t31.5 93t35.5 79.5q6 11 11 18.5t12 12t16.5 6.5t23.5 2q40 0 40 -20q0 -8 -12 -37t-26 -71t-26 -92.5t-12 -102.5q0 -84 26.5 -146.5t75 -104.5t117.5 -63t155 -21q80 0 166.5 19.5t166.5 53t147.5 77t111.5 91.5q-12 22 -47 42.5t-87.5 36.5
t-120 27.5t-143.5 16.5q-11 0 -11 13q0 9 5 28t19 52q15 36 24.5 49.5t19.5 15.5q43 6 85 17t78.5 26t66.5 34.5t50 44.5q-6 47 -28.5 93t-58 91t-81.5 89t-99 87l-8 -32q-9 -33 -39 -14q-35 23 -65.5 45.5t-53.5 55.5q-17 19 -23.5 48.5t-6.5 62.5q0 22 4 50t12 57
t18.5 56.5t24.5 49.5q11 19 57.5 49.5t117 67.5t159 78t184.5 80l350 145q8 4 14.5 1t6.5 -13q0 -11 -4 -28t-15 -45q-17 -40 -31 -61.5t-28 -27.5q-98 -40 -196.5 -81.5t-194 -84t-186 -85.5t-171.5 -86q44 -34 88.5 -72.5t87 -80t81.5 -85.5t72 -90q48 -66 74 -134
t26 -131q0 -26 -2 -46t-6 -38t-10 -35.5t-14 -37.5z" />
    <glyph glyph-name="uniFEDC_uniFEF0.liga" unicode="&#xfedc;&#xfef0;" horiz-adv-x="1607" 
d="M1198 347q-10 -18 -25.5 -34t-33 -29.5t-36 -23.5t-34.5 -16q56 -16 96.5 -32t72.5 -41q33 -33 33 -75q0 -11 -1 -27t-5 -30q-10 -37 -23 -71.5t-34 -69.5q-59 -58 -134 -108.5t-162 -88t-185 -59t-201 -21.5q-131 0 -218 37t-138.5 96t-72.5 133t-21 149q0 59 8.5 113.5
t22.5 104t31.5 93t35.5 80.5q12 22 23.5 30.5t40.5 8.5q21 0 30 -4.5t9 -14.5q0 -9 -12 -38t-26 -71t-26 -93t-12 -103q0 -83 26.5 -146.5t75 -106.5t117.5 -64.5t155 -21.5q80 0 165.5 19t165.5 51t147.5 74t111.5 88q-13 21 -48.5 40.5t-88 35t-119.5 26.5t-143 15
q-14 0 -14 13q1 8 6.5 27.5t18.5 49.5q14 35 24.5 49.5t20.5 16.5q49 7 97 19.5t90.5 31t76.5 43t55 57.5q-7 46 -30 90t-60 87.5t-85 88t-104 91.5q-42 34 -85 66t-88 64q-11 10 -21 23t-10 33q0 39 16 92.5t42 104.5q11 19 59 49.5t120.5 67.5t162 77.5t183.5 79.5
q93 37 181.5 73t183.5 74q8 4 14.5 0.5t6.5 -12.5q0 -11 -4 -27t-16 -45q-17 -41 -29.5 -63t-28.5 -28q-103 -42 -205 -84t-200 -84.5t-190.5 -85.5t-174.5 -86q40 -27 82.5 -59.5t84.5 -67.5t82.5 -72t76.5 -73q78 -77 135 -147.5t107 -141.5q38 -55 70.5 -95t65 -65.5
t66.5 -38t76 -12.5l-16 -173q-67 0 -115.5 14.5t-89.5 47.5t-80 87t-88 134l-13 -4q-5 -44 -25 -92z" />
    <glyph glyph-name="uniFEDF_uniFEF0.liga" unicode="&#xfedf;&#xfef0;" horiz-adv-x="1367" 
d="M1159 342q-17 -23 -46.5 -39.5t-55.5 -24.5q56 -17 103.5 -35.5t79.5 -44.5q34 -34 34 -77q0 -54 -19 -104t-45 -102q-58 -60 -133.5 -111.5t-163.5 -90t-186 -60.5t-202 -22q-131 0 -217.5 37t-138 96t-72.5 133.5t-21 148.5q0 59 8.5 113.5t22.5 104t31.5 93t35.5 80.5
q12 22 23 30.5t41 8.5q39 0 39 -20q0 -8 -12 -37t-26 -71t-26 -93t-12 -103q0 -83 26.5 -146.5t75 -106t117.5 -64t155 -21.5q80 0 166.5 19.5t166.5 53t147.5 77t111.5 91.5q-12 22 -47.5 42t-88 36.5t-119.5 28t-142 16.5q-12 0 -12 13q0 18 24 80q15 36 25.5 49.5
t18.5 15.5q41 6 80.5 15t74.5 22t64.5 30t50.5 38l-4 90q-6 63 -14.5 140.5t-17 158.5t-16 159t-11.5 142l-2 34t1 34q-17 16 -25.5 41.5t-8.5 48.5q0 42 23.5 87t55.5 87q5 8 12 8q10 0 10 -9q1 -20 5.5 -36t15 -32.5t28.5 -36t47 -47.5q14 -13 17.5 -22t3.5 -19
q0 -13 -5.5 -32t-14.5 -37t-20 -33t-21 -19q3 -51 7 -108.5t8.5 -116t8.5 -116t7.5 -109t6 -94t3.5 -71.5q0 -28 -3.5 -58.5t-9 -58t-12 -47.5t-12.5 -27z" />
    <glyph glyph-name="uniFEE0_uniFEF0.liga" unicode="&#xfee0;&#xfef0;" horiz-adv-x="1548" 
d="M1547 160q-52 0 -98.5 18.5t-85 56.5t-66.5 95t-43 135h-12q-16 -47 -37 -84t-50 -60q-26 -21 -61 -41t-66 -33q52 -14 97 -27t78.5 -29.5t52.5 -39t19 -55.5q0 -25 -5 -52.5t-14 -54t-21 -50t-25 -40.5q-59 -57 -134.5 -106.5t-163 -86t-186 -57.5t-201.5 -21
q-114 0 -194.5 28.5t-133 76t-80 108.5t-36.5 127q-3 19 -4 37t-1 37q0 58 8.5 112.5t22.5 104t31.5 94t35.5 81.5q6 11 11 18.5t12 12t16.5 6t23.5 1.5q23 0 31.5 -4t8.5 -15q0 -12 -12 -40.5t-26 -69t-26 -90.5t-12 -104q0 -24 1.5 -45.5t6.5 -42.5q26 -123 121.5 -187
t244.5 -64q80 0 166.5 18.5t166.5 50t147.5 72.5t111.5 86q-15 26 -51.5 43t-81.5 29q-47 11 -111.5 25t-157.5 20q-13 0 -13 13q0 10 5.5 28t18.5 46q14 35 24 46.5t19 13.5q54 13 93 27.5t81 34.5q63 27 117 69t88 114q8 17 15 45q10 40 14.5 91.5t4.5 102.5q0 11 -2 48
t-5.5 87t-7 106.5t-7 107.5t-5.5 89.5t-2 52.5q0 11 5 27.5t13 36.5q8 19 18.5 39t22 36t22 26t18.5 10q6 0 9.5 -4t3.5 -9q9 -203 25.5 -409t30.5 -404q3 -59 16 -112t36 -93t58 -64t83 -24z" />
    <glyph glyph-name="uniFEE3_uniFEF0.liga" unicode="&#xfee3;&#xfef0;" horiz-adv-x="1559" 
d="M1169 799q29 3 64 -3.5t70 -19.5t68 -31t58.5 -38.5t41 -41.5t15.5 -40q0 -28 -9.5 -61.5t-23 -64t-30 -53.5t-29.5 -29q-21 -8 -51 -16.5t-64.5 -17.5t-71.5 -19.5t-72 -22.5q-79 -29 -138.5 -57t-92.5 -48q28 -9 64 -19.5t73.5 -23.5t74 -28t64.5 -33t45.5 -38.5
t17.5 -43.5t-5.5 -47.5t-14.5 -49.5t-20.5 -48.5t-23.5 -44.5q-39 -42 -106.5 -83.5t-153.5 -74.5t-186 -53.5t-205 -20.5q-126 0 -212.5 33.5t-140 89.5t-76.5 128.5t-23 150.5q0 61 10 119t24.5 108t31.5 92t32 72q12 23 23.5 31.5t39.5 8.5q40 0 40 -20q0 -8 -12 -37
t-26 -71t-26 -93t-12 -103q0 -81 26 -142.5t74 -102t116.5 -61t153.5 -20.5q81 0 166.5 16t163.5 42.5t142 62t102 74.5q-5 13 -25.5 25t-52 22.5t-70.5 20t-80 17.5t-80.5 14t-71.5 10q-25 8 -25 36q0 11 5.5 28t13.5 36t16.5 36.5t15.5 28.5q21 35 60.5 61t81.5 51
q38 21 77 40t78 36q-27 30 -43.5 61.5t-16.5 65.5q0 28 11 62.5t30.5 65t45 52.5t54.5 24z" />
    <glyph glyph-name="uniFEE4_uniFEF0.liga" unicode="&#xfee4;&#xfef0;" horiz-adv-x="1883" 
d="M1883 160q-35 0 -62.5 5.5t-51.5 17t-45 30t-43 44.5q-9 -23 -21 -46.5t-27 -42.5t-32.5 -30.5t-35.5 -11.5q-43 0 -89 16t-91.5 42.5t-88 60t-79.5 68.5q-15 -29 -38.5 -50.5t-52 -36.5t-59.5 -24t-62 -12q48 -10 91 -25t75.5 -35t52 -45t19.5 -55q0 -22 -5.5 -46
t-14.5 -48t-20.5 -47.5t-23.5 -43.5q-40 -41 -107.5 -81.5t-153.5 -73t-185.5 -52.5t-204.5 -20q-126 0 -212.5 33.5t-140 89.5t-76.5 128.5t-23 150.5q0 61 10 118.5t24.5 108t31.5 92.5t32 73q12 22 23.5 30.5t39.5 8.5q40 0 40 -20q0 -9 -12 -38t-26 -70.5t-26 -92.5
t-12 -103q0 -81 26 -142.5t74 -102t116.5 -61t153.5 -20.5q81 0 166.5 15.5t163.5 42t142 61t102 73.5q-4 12 -24 23t-50.5 20.5t-69 18t-79.5 16.5t-82 15t-77 14q-24 6 -24 31q0 8 5 27.5t15 40.5t25 39.5t35 24.5q36 14 93.5 28.5t125.5 34.5q39 12 74 33.5t58 64.5
q15 29 31 63t33 67q19 43 42.5 78.5t50.5 61t57 39t62 13.5q43 0 73.5 -22.5t58.5 -62t57.5 -92t70.5 -112.5q18 -34 35.5 -58t39 -39t49.5 -21.5t69 -6.5zM1548 308q13 1 22.5 14.5t10.5 35.5q-5 33 -19 72t-35 74.5t-47.5 62.5t-56.5 36q-21 0 -41 -11.5t-36.5 -31
t-30 -45.5t-21.5 -54q24 -30 58 -56.5t69.5 -47.5t69 -34t57.5 -15z" />
    <glyph glyph-name="uniFEEB_uniFEF0.liga" unicode="&#xfeeb;&#xfef0;" horiz-adv-x="1915" 
d="M1149 364q-36 26 -62 66.5t-26 95.5q0 44 15 89t41.5 86.5t61 77t73.5 60.5v5q-25 5 -38 7t-26 7q-14 5 -14 21q0 8 4 23.5t10.5 34.5t14.5 39.5t16 37.5q11 23 21 34.5t27 11.5q10 0 25 -6t32 -15t33.5 -19t28.5 -17q87 -56 169 -121t145 -137.5t101 -152.5t38 -164
q0 -41 -15 -79.5t-38.5 -70.5t-52 -56t-54.5 -35q-38 0 -86.5 7t-100 19.5t-102 30.5t-92.5 40q-72 -33 -133.5 -59.5t-127.5 -43.5q42 -9 80 -22.5t66.5 -32t45 -42t16.5 -51.5q0 -23 -6 -47.5t-15.5 -49t-21 -47.5t-23.5 -44q-39 -42 -106.5 -83t-153.5 -73.5t-186 -53
t-205 -20.5q-126 0 -212.5 33.5t-140 89t-76.5 128t-23 150.5q0 61 10 119t24.5 108.5t31.5 92.5t32 72q12 23 23.5 31t39.5 8q40 0 40 -20q0 -8 -12 -37t-26 -70.5t-26 -92.5t-12 -103q0 -81 26 -142.5t74 -102.5t116.5 -61.5t153.5 -20.5q81 0 166.5 15.5t163.5 42.5
t142 62.5t102 74.5q-5 13 -24.5 24.5t-50 22t-68.5 20t-79 17.5t-82.5 15.5t-78.5 13.5q-23 7 -23 32q0 14 7.5 36.5t17.5 43.5q9 22 17 32t21 13q77 15 168 39t179 63zM1346 767q-23 0 -51 -11t-55 -32t-50 -52t-35 -72q4 -53 44 -91.5t112 -65.5q48 26 88 59.5t60 80.5
q-2 37 -11.5 70.5t-24.5 58.5t-35 40t-42 15zM1753 391q-1 22 -14.5 55t-39 72t-63 80.5t-87.5 80.5l-7 -3q2 -15 4 -32t2 -31q0 -26 -7.5 -54.5t-20.5 -57t-31.5 -55t-40.5 -47.5q18 -6 38.5 -12t43 -11.5t45.5 -9.5t45 -5q33 -5 69.5 0.5t63.5 29.5z" />
    <glyph glyph-name="uniFEEC_uniFEF0.liga" unicode="&#xfeec;&#xfef0;" horiz-adv-x="1950" 
d="M1149 544q-36 25 -62 65t-26 95q0 43 15.5 86.5t42 84t62 75.5t76.5 61v5q-23 4 -36.5 5.5t-25.5 6.5q-14 6 -14 20q0 7 4 21.5t10.5 32.5t14.5 37t16 36q11 23 21 35t27 12q9 0 24 -6.5t31.5 -15.5t33 -19.5t28.5 -17.5q86 -54 166.5 -117.5t143 -134t100.5 -148.5
t38 -160q0 -30 -9 -59t-23.5 -54.5t-33 -47t-37.5 -37.5q8 -37 67.5 -55t162.5 -18l-16 -172q-43 0 -85.5 4t-84.5 16q-60 18 -93.5 52.5t-41.5 92.5q-2 10 -2.5 23.5t-0.5 22.5q-19 0 -59 5.5t-88.5 17t-101 29t-95.5 41.5q-72 -33 -133.5 -59.5t-127.5 -43.5q42 -9 80 -23
t66.5 -33.5t45 -43.5t16.5 -52q0 -23 -6 -47.5t-15.5 -49.5t-21 -49t-23.5 -45q-39 -42 -106.5 -84t-153.5 -75t-186 -54t-205 -21q-126 0 -212.5 33.5t-140 89.5t-76.5 129t-23 151q0 61 10 118.5t24.5 108t31.5 92.5t32 72q12 23 23.5 30.5t39.5 7.5q40 0 40 -19
q0 -8 -12 -37t-26 -71t-26 -93t-12 -103q0 -82 26 -143t74 -101.5t116.5 -61t153.5 -20.5q82 0 167.5 16t163 43t141.5 62.5t102 75.5q-4 14 -23.5 26.5t-50 23t-68.5 19.5t-79 17t-83 15.5t-79 14.5q-23 7 -23 31q0 14 7.5 37t17.5 46q9 23 17 33t21 13q37 8 79.5 18
t87 22.5t90.5 28.5t90 35zM1348 930q-24 0 -52.5 -10.5t-55.5 -31t-50 -50t-35 -68.5q4 -50 44 -88t112 -64q48 25 89 57.5t61 78.5q-2 35 -11.5 67t-24.5 56t-35 38.5t-42 14.5zM1753 571q-1 22 -14 55t-38 71t-61.5 79t-85.5 79l-6 -3q2 -14 4 -30.5t2 -30.5
q0 -24 -7.5 -52.5t-21.5 -57t-33.5 -55t-43.5 -46.5q18 -6 40.5 -13t46.5 -13t48.5 -10t47.5 -4q34 -1 65 3.5t57 27.5z" />
    <glyph glyph-name="uniFBAC_uniFEF0.liga" unicode="&#xfbac;&#xfef0;" horiz-adv-x="1915" 
d="M1149 364q-36 26 -62 69.5t-26 100.5q0 46 11.5 90.5t31 85t43.5 75t50 61.5q102 108 205 108q28 0 49 -9t36.5 -23t27 -30.5t20.5 -30.5q39 -2 81 -26.5t94 -85.5q60 -72 94.5 -150.5t34.5 -163.5q0 -35 -10.5 -68t-27.5 -62t-39 -53.5t-44 -41.5q-10 -7 -29.5 -13
t-38.5 -6q-32 0 -75 6.5t-90.5 18.5t-96 29t-90.5 39q-72 -33 -133.5 -59.5t-127.5 -43.5q42 -9 80 -22.5t66.5 -32t45 -42t16.5 -51.5q0 -23 -6 -47.5t-15.5 -49t-21 -47.5t-23.5 -44q-39 -42 -106.5 -83t-153.5 -73.5t-186 -53t-205 -20.5q-126 0 -212.5 33.5t-140 89
t-76.5 128t-23 150.5q0 61 10 119t24.5 108.5t31.5 92.5t32 72q12 23 23.5 31t39.5 8q40 0 40 -20q0 -8 -12 -37t-26 -70.5t-26 -92.5t-12 -103q0 -81 26 -142.5t74 -102.5t116.5 -61.5t153.5 -20.5q81 0 166.5 15.5t163.5 42.5t142 62.5t102 74.5q-5 13 -24.5 24.5t-50 22
t-68.5 20t-79 17.5t-82.5 15.5t-78.5 13.5q-23 7 -23 32q0 14 7.5 36.5t17.5 43.5q9 22 17 32t21 13q77 15 168 39t179 63zM1347 777q-23 0 -51.5 -11t-55.5 -33t-50 -54t-35 -74q4 -54 44 -93.5t112 -68.5q48 27 88.5 62t60.5 83q-2 38 -11.5 72.5t-24.5 60.5t-35 41
t-42 15zM1753 391q-1 24 -16 63t-40.5 82t-60 84.5t-76.5 70.5l-7 -3q3 -17 4.5 -31t1.5 -30q0 -30 -8.5 -61t-23.5 -60t-35 -56.5t-44 -50.5q18 -6 38.5 -12t43 -11.5t45.5 -9.5t45 -5q33 -5 69.5 0.5t63.5 29.5z" />
    <glyph glyph-name="uniFBAD_uniFEF0.liga" unicode="&#xfbad;&#xfef0;" horiz-adv-x="2067" 
d="M1359 128q2 11 4 25.5t4 26.5q-22 -3 -58.5 -6.5t-79 -7.5t-87.5 -6.5t-84 -3.5q34 -9 67.5 -21.5t60 -28t43 -34t16.5 -39.5q0 -23 -5.5 -50t-14.5 -53.5t-21 -49t-25 -35.5q-40 -42 -107.5 -83t-153.5 -73.5t-186 -53t-204 -20.5q-126 0 -212.5 33.5t-140 89.5
t-76.5 129t-23 152q0 63 10 121t24.5 108.5t31.5 92.5t32 73q11 23 23 31t40 8q40 0 40 -20q0 -9 -12 -38t-26 -71t-26 -93t-12 -103q0 -83 26 -145t74 -103t116.5 -62t153.5 -21q82 0 167.5 16t163 42.5t141 62t102.5 74.5q-5 11 -24.5 22.5t-50 22t-68.5 20.5t-79.5 19.5
t-83 17.5t-79.5 15q-21 4 -21 28q0 13 6.5 34t17.5 49q15 42 34 43q76 9 157 18t161 18t157 19.5t145 22.5q16 68 49.5 148.5t77 159t91.5 147.5t92 114q14 13 26 13t26.5 -19t29.5 -48.5t29 -65t25 -68.5q10 -42 13 -82.5t-2 -75.5q-4 -30 -15.5 -63t-27.5 -65.5t-35 -63
t-39 -55.5q37 3 78 5.5t83 5t84 3.5t81 1l-16 -172q-43 0 -99 -1t-105 -3q20 -14 37 -33.5t29.5 -41.5t19.5 -46t7 -47q0 -54 -16 -103.5t-44 -88t-66 -61t-81 -22.5q-84 0 -146.5 35.5t-106 93.5t-68.5 132.5t-34 151.5q-8 0 -18.5 0.5t-16.5 1.5zM1707 720q-4 0 -11 -5
q-26 -24 -56 -66t-58 -93t-51.5 -105.5t-35.5 -102.5q134 24 208 59.5t89 95.5q-1 37 -12 75.5t-25.5 70t-28 51.5t-19.5 20zM1871 -54q-9 46 -44.5 80t-88 56.5t-117.5 34.5t-132 15q15 -51 42.5 -97.5t65.5 -81.5t85 -56t101 -21q38 0 61 21t27 49z" />
    <glyph glyph-name="uniFBA9_uniFEF0.liga" unicode="&#xfba9;&#xfef0;" horiz-adv-x="1934" 
d="M1949 332l-15 -172h-54q-31 0 -63 -6t-58.5 -19t-43 -34t-16.5 -51q0 -34 5.5 -62t15 -53t22.5 -48.5t27 -47.5q8 -14 3 -39t-28 -61q-25 -40 -45 -56t-29 -16t-16 2.5t-15 7.5q-67 39 -114 89t-76.5 105.5t-43 114t-13.5 113.5q0 70 -11.5 135t-39 115t-72.5 80t-111 30
q-77 0 -146 -19t-121 -45.5t-82.5 -54t-30.5 -44.5q0 -36 51.5 -54t160.5 -37q49 -9 85 -20.5t59.5 -30t35 -45t11.5 -63.5q0 -23 -6 -51t-15.5 -54.5t-21.5 -49t-24 -34.5q-52 -54 -117 -98.5t-140.5 -76.5t-160.5 -49.5t-176 -17.5q-129 0 -214.5 37.5t-136.5 97.5
t-72 135.5t-21 151.5q0 55 8.5 108t22.5 102.5t31.5 93.5t35.5 80q10 21 22.5 30t41.5 9q39 0 39 -19q0 -8 -12 -37.5t-26 -71.5t-26 -93.5t-12 -104.5q0 -85 26 -148t74.5 -105t117 -62.5t153.5 -20.5q64 0 136.5 16.5t142 45t130 67.5t100.5 85q0 9 -8 17.5t-28.5 17
t-54.5 16.5t-86 16q-45 7 -86 15.5t-72.5 24.5t-50.5 41.5t-19 67.5q0 47 23 95.5t61.5 93t90.5 83.5t109.5 68t118.5 45.5t118 16.5q84 0 139.5 -35.5t88.5 -98t46 -147.5t13 -184q0 -49 13 -92.5t33.5 -78t46 -60t49.5 -38.5l5 5q-7 23 -15.5 70t-8.5 103q0 58 22 106
t60 81.5t89 52t108 18.5h63z" />
    <glyph glyph-name="uniFEA3_uniFBAF.liga" unicode="&#xfea3;&#xfbaf;" horiz-adv-x="1822" 
d="M376 537q-8 0 -11 6t-3 24q0 29 7 40q38 73 89 112t126 39q42 0 84.5 -9t86 -23.5t89.5 -33t96 -38.5q127 -54 240.5 -86.5t227.5 -32.5q14 0 14 -14q0 -10 -4 -26.5t-18 -44.5q-35 -80 -55 -80q-25 0 -57 7t-64 7q-38 0 -91 -8.5t-112.5 -21.5t-121.5 -30t-116 -33
q-71 -21 -142 -46.5t-136 -51.5t-121 -52t-97 -49.5t-64.5 -42t-23.5 -30.5q0 -26 30.5 -46t83 -33.5t122.5 -21t150 -7.5h647q45 0 98 -1t107.5 -3.5t107.5 -6.5t97 -9q20 -3 30 -13t10 -42q0 -46 -9.5 -67t-38.5 -21h-1138q-91 0 -168 12t-133 34t-87.5 53t-31.5 70
q0 34 16 77.5t41 86t53.5 78.5t54.5 55q25 18 61 36.5t78 37t87.5 35.5t89.5 32q94 32 198.5 60t222.5 49v5q-55 16 -110 37.5t-109 41t-107.5 33t-105.5 13.5q-46 0 -74 -9t-45.5 -19.5t-28 -19.5t-22.5 -9z" />
    <glyph glyph-name="uniFEA4_uniFBAF.liga" unicode="&#xfea4;&#xfbaf;" horiz-adv-x="1700" 
d="M1251 460q-91 -14 -188 -41.5t-191 -56.5q-82 -27 -163.5 -58.5t-156.5 -65t-139.5 -66t-112 -62t-74.5 -53t-27 -38.5q0 -26 30.5 -46t83 -33.5t122.5 -21t150 -7.5h565q45 0 98.5 -1.5t109 -4t108.5 -6t97 -8.5q20 -3 28.5 -13t8.5 -42q0 -46 -9.5 -67t-38.5 -21h-1056
q-91 0 -168 12t-133 34t-87.5 53t-31.5 70q0 34 16 77.5t41 86t53.5 78.5t54.5 56q30 23 74 47t96 47.5t108 46t109 41.5q115 45 241.5 80.5t271.5 61.5v5q-56 14 -110.5 32t-108.5 34.5t-107.5 28t-105.5 11.5q-46 0 -74 -9t-45.5 -19.5t-28.5 -19t-23 -8.5q-8 0 -11 5.5
t-3 23.5q0 16 2 25t5 16q39 73 89.5 112t125.5 39q42 0 84 -7.5t86 -19.5t90 -28.5t96 -34.5q128 -47 241.5 -75t226.5 -28q14 0 14 -13q0 -10 -3.5 -26t-14.5 -44q-17 -38 -31 -59t-26 -21q-26 0 -60 7t-67 7q-28 0 -56 -3q4 -41 38 -67.5t87.5 -42t122.5 -22t143 -6.5
l-17 -172q-63 0 -122 3.5t-116 14.5q-44 9 -83.5 22.5t-69.5 36t-48 55.5t-18 80q0 20 2.5 42.5t7.5 43.5z" />
    <glyph glyph-name="uniFEB3_uniFBAF.liga" unicode="&#xfeb3;&#xfbaf;" horiz-adv-x="1866" 
d="M1330 652q2 8 10.5 12.5t35.5 4.5q23 0 30.5 -4t7.5 -12q0 -14 -3.5 -33t-8.5 -40t-10.5 -41.5t-10.5 -36.5q9 -26 33 -50t53.5 -42t60 -28.5t52.5 -10.5q28 0 40.5 22.5t12.5 62.5q0 28 -7 53.5t-15 45.5t-15 33t-7 18q0 11 6 30t26 50q18 27 28 39t17 12q9 0 15 -12
q7 -17 15 -40.5t14.5 -51t11 -57.5t4.5 -60q0 -48 -12 -102t-34 -100.5t-53.5 -77t-69.5 -30.5q-32 0 -70.5 14t-74.5 34t-65 43.5t-41 41.5q-43 -69 -114 -110.5t-162 -41.5q-83 0 -130.5 36.5t-75.5 109.5q-8 21 -14.5 40.5t-13 35.5t-14 25.5t-16.5 9.5q-8 0 -21 -13
t-29.5 -34t-36 -46.5l-39 -51t-39 -47.5t-35.5 -35q-21 -17 -56 -34.5t-76 -35t-82.5 -35t-75.5 -33.5t-55.5 -31.5t-21.5 -28.5q0 -29 36 -49.5t92 -33t124.5 -18.5t133.5 -6h649q43 0 96.5 -1.5t109 -4t109.5 -6.5t98 -9q37 -6 37 -55q0 -45 -9 -66.5t-38 -21.5h-1141
q-80 0 -155.5 10.5t-134 31.5t-94.5 53t-36 74q0 34 15 74.5t38 79.5t52 73.5t56 55.5q25 19 70.5 42.5t96 48.5t98 50.5t76.5 49.5q13 11 31.5 34.5t39 51.5t43 57.5t44 53.5t41.5 39.5t36 15.5q20 0 33.5 -15t24.5 -39t22 -53.5t25 -57.5q32 -66 68.5 -92t84.5 -26
q55 0 96.5 21.5t72.5 60.5t53 92.5t37 117.5z" />
    <glyph glyph-name="uniFEB4_uniFBAF.liga" unicode="&#xfeb4;&#xfbaf;" horiz-adv-x="1928" 
d="M1328 295q-21 -26 -49.5 -49t-64.5 -40t-80 -26.5t-97 -9.5q-47 0 -80 11t-57 31t-41.5 48t-32.5 63q-10 22 -17 43t-13 37.5t-13 26t-17 9.5q-11 0 -34 -27t-51.5 -64t-58.5 -74t-56 -57q-21 -17 -56 -34.5t-76 -35t-82.5 -35t-75.5 -33.5t-55.5 -31.5t-21.5 -28.5
q0 -29 36 -49.5t92 -33t124.5 -18.5t133.5 -6h648q43 0 97 -1.5t110.5 -4t110 -6.5t96.5 -9q20 -3 28.5 -15t8.5 -40q0 -45 -9 -66.5t-38 -21.5h-1141q-80 0 -155.5 10.5t-134 31.5t-94.5 53t-36 74q0 34 15 74.5t38 79.5t52 73.5t56 55.5q26 20 72.5 44t97.5 49.5
t97.5 50.5t73.5 47q13 11 31 33.5t39 49.5t43 55t43.5 51.5t41 38.5t35.5 15q23 0 37.5 -15.5t25.5 -40t21 -54t24 -57.5q28 -58 63 -92t92 -34q66 0 112.5 19t79.5 52.5t54 79.5t36 101q2 8 10.5 12.5t34.5 4.5q23 0 31.5 -3.5t8.5 -12.5q0 -13 -3 -30.5t-7.5 -36t-10 -37
t-9.5 -33.5q6 -25 20.5 -49t33.5 -43.5t40.5 -31.5t41.5 -12q26 0 46 30.5t36 88.5q10 39 16.5 80.5t10.5 67.5q2 11 11.5 21.5t35.5 23.5q23 12 33 14t13 -4q4 -5 3 -15q-2 -30 -8 -67.5t-12 -75.5q12 -36 29.5 -64t43 -48t60 -30.5t80.5 -10.5l-17 -172q-31 0 -64.5 5
t-65 20.5t-60 44t-50.5 76.5h-5q-28 -75 -63 -119.5t-84 -44.5q-33 0 -63 13.5t-56.5 35t-48.5 49t-40 55.5z" />
    <glyph glyph-name="uniFEBB_uniFBAF.liga" unicode="&#xfebb;&#xfbaf;" horiz-adv-x="2149" 
d="M1158 346q16 -2 32.5 -3.5t34.5 -3.5q42 -2 86 -1.5t92 2.5q72 4 142 13t133 23.5t116 33.5t90 43q1 19 -3 42q-8 33 -30.5 63t-54 53.5t-69.5 37t-78 13.5q-43 0 -101.5 -23.5t-124.5 -65.5t-134.5 -100t-130.5 -127zM1047 184q-18 -28 -38 -71.5t-35 -80.5
q-8 -18 -17.5 -23t-33.5 -5q-19 0 -26.5 4t-7.5 14q0 12 7 34.5t17.5 49.5t23 53.5t23.5 46.5q-42 10 -78.5 41t-56.5 82q-9 24 -16 45t-13.5 36.5t-13.5 24.5t-16 9q-8 0 -21 -13t-29.5 -34t-35.5 -46.5t-38.5 -51t-39 -47.5t-36.5 -35q-21 -17 -56 -34.5t-76 -35
t-82.5 -35t-75.5 -34t-55.5 -31.5t-21.5 -28q0 -29 36 -49.5t92 -33t124.5 -18.5t133.5 -6h649q43 0 96.5 -1.5t109 -4t109.5 -6.5t98 -9q20 -3 28.5 -15.5t8.5 -39.5q0 -45 -8.5 -66.5t-38.5 -21.5h-1141q-80 0 -155.5 10.5t-134 31.5t-94.5 53t-36 74q0 34 15 74.5
t38.5 80t52 73.5t55.5 55q25 19 70.5 42.5t96 48.5t98 50.5t76.5 49.5q13 11 31.5 34.5t39 51.5t43 57.5t44 53.5t41.5 39.5t36 15.5q22 0 36 -14.5t25 -38t20.5 -51.5t22.5 -55q21 -44 54.5 -78.5t80.5 -42.5q39 43 87.5 93.5t103 101t114.5 97.5t122 83t125.5 58t124.5 22
q51 0 101 -23t89.5 -58t64.5 -77t25 -79q0 -51 -13.5 -97.5t-34 -85.5t-45.5 -69t-49 -49q-60 -31 -129.5 -53t-143 -36.5t-149 -21t-147.5 -6.5q-73 0 -135 5t-116 16z" />
    <glyph glyph-name="uniFEBC_uniFBAF.liga" unicode="&#xfebc;&#xfbaf;" horiz-adv-x="2122" 
d="M1158 346q16 -2 32.5 -3.5t34.5 -3.5q42 -2 86 -1.5t92 2.5q72 4 142 13t133 23.5t116 33.5t90 43q1 19 -3 42q-8 33 -30.5 63t-54 53.5t-69.5 37t-78 13.5q-43 0 -101.5 -23.5t-124.5 -65.5t-134.5 -100t-130.5 -127zM1047 184q-18 -28 -38 -71.5t-35 -80.5
q-8 -18 -17.5 -23t-33.5 -5q-19 0 -26.5 4t-7.5 14q0 12 7 34.5t17.5 49.5t23 53.5t23.5 46.5q-42 10 -78.5 41t-56.5 82q-9 24 -16 45t-13.5 36.5t-13.5 24.5t-16 9q-8 0 -21 -13t-29.5 -34t-35.5 -46.5t-38.5 -51t-39 -47.5t-36.5 -35q-21 -17 -56 -34.5t-76 -35
t-82.5 -35t-75.5 -34t-55.5 -31.5t-21.5 -28q0 -29 36 -49.5t92 -33t124.5 -18.5t133.5 -6h649q43 0 96.5 -1.5t109 -4t109.5 -6.5t98 -9q20 -3 28.5 -15.5t8.5 -39.5q0 -45 -8.5 -66.5t-38.5 -21.5h-1141q-80 0 -155.5 10.5t-134 31.5t-94.5 53t-36 74q0 34 15 74.5
t38.5 80t52 73.5t55.5 55q25 19 70.5 42.5t96 48.5t98 50.5t76.5 49.5q13 11 31.5 34.5t39 51.5t43 57.5t44 53.5t41.5 39.5t36 15.5q22 0 36 -14.5t25 -38t20.5 -51.5t22.5 -55q21 -44 54.5 -78.5t80.5 -42.5q39 43 87.5 93.5t103 101t114.5 97.5t122 83t125.5 58t124.5 22
q51 0 101 -23t89.5 -58t64.5 -77t25 -79q0 -45 -9 -83.5t-22.5 -69t-29 -54t-28.5 -39.5l3 -5q34 1 88 1.5t127 0.5l-16 -172q-26 0 -55.5 0.5t-60.5 1t-61 2.5t-56 5q-54 5 -97 16.5t-80 33.5q-97 -28 -202.5 -42t-211.5 -14q-73 0 -135 5t-116 16z" />
    <glyph glyph-name="uniFEC3_uniFBAF.liga" unicode="&#xfec3;&#xfbaf;" horiz-adv-x="1824" 
d="M702 363q149 5 276 20.5t225.5 39.5t165.5 55t96 66q-4 23 -24.5 53.5t-53.5 57.5t-76.5 46t-93.5 19q-54 0 -119 -29.5t-132.5 -79t-135.5 -114t-128 -134.5zM1415 335q-78 -37 -168.5 -62.5t-189 -43t-203 -27t-210.5 -14.5q-92 -11 -172.5 -31.5t-141.5 -44.5t-96 -49
t-35 -44q0 -26 30.5 -46t83 -33.5t122.5 -21t150 -7.5h651q45 0 98 -1.5t108 -4t108 -6t97 -8.5q20 -3 28.5 -15.5t8.5 -39.5q0 -46 -9.5 -67t-38.5 -21l-1140 1q-91 0 -168 12t-133 33.5t-87.5 52.5t-31.5 70q0 34 15 76t38.5 84t53 78.5t58.5 58.5q54 51 137.5 88
t198.5 57l65 79q6 10 10 26t7 34.5t4 38t1 36.5q-3 55 -10.5 127.5t-16 149t-16 150.5t-10.5 133q-6 43 -2 79q-18 17 -26 42t-8 48q0 38 23 84.5t55 88.5q4 5 6 7t7 2q9 0 9 -9q1 -19 6 -35.5t16 -34t29 -37t46 -45.5q13 -13 17 -22t4 -19q0 -13 -6 -32t-15 -37.5t-20 -33
t-21 -18.5l6.5 -123.5l7 -133t6.5 -129.5t4 -112q0 -30 -2.5 -62t-8.5 -58q54 55 118.5 115t135 109.5t144 81.5t145.5 32q51 0 103.5 -23.5t95 -59.5t69.5 -80t27 -85t-12.5 -85.5t-35 -85t-53 -74t-66.5 -53.5z" />
    <glyph glyph-name="uniFEC4_uniFBAF.liga" unicode="&#xfec4;&#xfbaf;" horiz-adv-x="1704" 
d="M703 327q149 6 276 22t225.5 40t165.5 54.5t96 65.5q-5 22 -25 52.5t-53 57.5t-76.5 46t-94.5 19q-55 0 -119.5 -29.5t-132 -78.5t-135 -114t-127.5 -135zM1457 345q3 -3 28.5 -5.5t64 -4t83.5 -2.5t87 -1l-16 -172q-32 0 -70 1t-76 2.5t-73.5 4.5t-63.5 7
q-40 7 -78.5 21t-76.5 44q-139 -42 -296.5 -58t-324.5 -24q-92 -9 -173 -26t-141.5 -37t-96 -40t-35.5 -36q0 -26 30.5 -46t83 -33.5t122.5 -21t150 -7.5h571q45 0 98.5 -1.5t108 -4t107.5 -6t97 -8.5q20 -3 28.5 -15.5t8.5 -39.5q0 -46 -9.5 -67t-38.5 -21l-1060 1
q-91 0 -168 12t-133 33.5t-87.5 52.5t-31.5 70q0 31 15 70t38.5 77.5t53 72t58.5 53.5q54 48 138 81.5t199 51.5l64 84q6 10 10 26.5t7 35.5t4 39.5t1 38.5q-3 58 -10.5 133t-16.5 154.5t-16.5 156.5t-10.5 138q-2 20 -3 40.5t1 38.5q-18 18 -26 42.5t-8 47.5q0 38 23 84.5
t55 88.5q4 5 6 7t7 2q8 0 10 -9q1 -20 6 -36t15.5 -33t28.5 -36.5t46 -46.5q14 -13 18 -21.5t4 -19.5q0 -13 -6 -32t-15 -37.5t-20 -33t-21 -18.5q2 -65 5.5 -137t7 -143t7 -136t4.5 -114q0 -30 -2.5 -62t-8.5 -58q54 55 119 115t135.5 109.5t144 81.5t145.5 32
q51 0 103 -23.5t95 -59.5t70 -80t27 -85q0 -37 -10.5 -73t-28 -68.5t-41 -59.5t-48.5 -47z" />
    <glyph glyph-name="uniFECB_uniFBAF.liga" unicode="&#xfecb;&#xfbaf;" horiz-adv-x="1824" 
d="M1001 870q17 -14 23.5 -27.5t6.5 -42.5q0 -36 -19 -36q-9 0 -26.5 9t-41.5 20.5t-54 20.5t-64 9q-49 0 -96 -12.5t-86.5 -32.5t-68 -45t-40.5 -50q4 -33 28 -71.5t61 -73t82 -61.5t92 -37q36 4 80.5 13t91 21t92.5 25t85 25q34 7 34 -18q0 -15 -6 -39t-14.5 -47.5
t-18.5 -41t-19 -19.5q-69 -20 -142.5 -39t-154.5 -42q-44 -13 -84 -24.5t-79.5 -23.5t-81.5 -24.5t-90 -27.5q-55 -18 -107.5 -38.5t-93.5 -41.5t-66 -41t-25 -38q0 -25 32 -45t85 -34t123 -21.5t146 -7.5h651q45 0 98.5 -1.5t108 -4t107.5 -6t97 -8.5q20 -3 28.5 -14.5
t8.5 -40.5q0 -46 -9.5 -67t-38.5 -21h-1140q-91 0 -168 12t-133 34t-87.5 53t-31.5 70q0 36 11.5 75.5t32.5 78t49.5 74t61.5 63.5q28 25 65.5 47t80 42t87.5 37.5t88 32.5q-22 14 -46 36t-44.5 50t-33.5 60t-13 66q0 69 30 137.5t79.5 124t112 90t128.5 34.5q39 0 73.5 -9
t63.5 -22.5t54 -30.5t45 -33z" />
    <glyph glyph-name="uniFECC_uniFBAF.liga" unicode="&#xfecc;&#xfbaf;" horiz-adv-x="1197" 
d="M469 502q-23 0 -23 34q0 14 4 37t11.5 46.5t18.5 44t26 29.5q42 27 93 46.5t117 19.5q48 0 98.5 -13t91.5 -35.5t67.5 -53t26.5 -64.5q0 -21 -6.5 -46.5t-20 -50.5t-34 -47.5t-47.5 -38.5q22 -21 55 -36t75 -24t90.5 -13.5t101.5 -4.5l-17 -172q-81 0 -146 9.5t-118 28.5
t-96.5 47.5t-81.5 66.5q-70 -34 -135 -62.5t-123 -54.5q-53 -23 -106 -46.5t-96 -46.5t-69.5 -44t-26.5 -39q0 -25 32 -45t85 -34t123 -21.5t146 -7.5h651q45 0 98 -1t108 -3t108 -6t97 -10q20 -3 28.5 -14.5t8.5 -40.5q0 -46 -9.5 -67t-38.5 -21h-1140q-91 0 -168 12
t-133 34t-87.5 53.5t-31.5 69.5q0 35 11.5 75t32.5 80t51.5 77.5t68.5 67.5q37 29 85 55t103 52t115.5 52.5t123.5 56.5q-16 13 -34 27.5t-37 27t-38.5 20.5t-38.5 8q-13 0 -23.5 -7t-26.5 -7z" />
    <glyph glyph-name="uniFEDB_uniFBAF.liga" unicode="&#xfedb;&#xfbaf;" horiz-adv-x="1672" 
d="M752 348q-26 -59 -93 -102t-182 -83q-55 -19 -105.5 -37.5t-88.5 -36.5t-61 -35.5t-23 -34.5q0 -25 32 -45t86 -34t123.5 -21.5t144.5 -7.5h499q44 0 97.5 -1t108.5 -3.5t108 -6t97 -9.5q22 -3 29.5 -17t7.5 -38q0 -46 -9.5 -67t-38.5 -21h-988q-92 0 -169.5 12t-133 34
t-86.5 53t-31 70q0 36 11.5 77t33 80.5t52.5 74.5t69 60q28 18 71 36.5t91.5 37.5t98 38.5t91 41t71.5 44t39 48.5q-7 47 -30 93.5t-58.5 92t-82 90t-99.5 87.5l-9 -32q-8 -33 -38 -14q-35 23 -65.5 45.5t-53.5 55.5q-17 19 -23.5 48.5t-6.5 62.5q0 22 4 50t12 57t18.5 56.5
t24.5 49.5q11 19 57.5 49.5t116.5 67.5t158.5 78t184.5 80q91 37 174 72t176 73q8 4 15 1t7 -13q0 -11 -4.5 -28t-15.5 -45q-32 -78 -58 -89q-197 -81 -390.5 -165.5t-358.5 -171.5q44 -34 88.5 -72.5t87.5 -80t82 -85.5t72 -90q48 -66 74 -134t26 -131q-1 -52 -10.5 -88.5
t-26.5 -76.5z" />
    <glyph glyph-name="uniFEDC_uniFBAF.liga" unicode="&#xfedc;&#xfbaf;" horiz-adv-x="1189" 
d="M1189 160q-67 0 -115.5 14.5t-89.5 47.5t-80 87t-88 134l-13 -4q-2 -22 -9 -47t-20 -49q-20 -35 -94.5 -79.5t-208.5 -95.5q-51 -19 -100 -38.5t-87.5 -38.5t-61.5 -37t-23 -35q0 -25 32 -45t86 -34t123.5 -21.5t144.5 -7.5h651q112 0 217.5 -4.5t193.5 -15.5
q22 -3 29.5 -14.5t7.5 -40.5q0 -46 -9.5 -67t-37.5 -21h-1141q-86 0 -162 12t-133.5 34t-91 53t-33.5 70q0 36 12 77t34.5 81t55.5 76.5t75 64.5q29 18 71 37t89.5 39t96 40.5t90.5 41.5t74 42t46 43q-7 46 -30 90t-59.5 87.5t-84.5 88t-105 91.5q-42 34 -84.5 66t-87.5 64
q-11 10 -21.5 23t-10.5 33q0 39 16 92.5t43 104.5q11 19 59 49.5t120.5 67.5t162 77.5t183.5 79.5q94 37 181.5 73t183.5 74q8 4 14.5 0.5t6.5 -12.5q0 -11 -4 -27t-16 -45q-17 -42 -29.5 -63.5t-28.5 -27.5q-208 -85 -405.5 -168.5t-365.5 -171.5q83 -54 167.5 -127
t159.5 -145q77 -77 134 -147.5t107 -141.5q38 -55 71 -95t65 -66t66.5 -38.5t76.5 -12.5z" />
    <glyph glyph-name="uniFEDF_uniFBAF.liga" unicode="&#xfedf;&#xfbaf;" horiz-adv-x="1672" 
d="M750 349q-26 -55 -92 -101t-181 -85q-56 -20 -106.5 -38.5t-88.5 -36.5t-60.5 -35t-22.5 -34q0 -25 32.5 -45t86 -34t123 -21.5t144.5 -7.5h499q48 0 101.5 -1t107.5 -3.5t106 -6t96 -9.5q22 -3 29.5 -17t7.5 -38q0 -46 -9.5 -67t-38.5 -21h-988q-90 0 -167 12t-133 34
t-88 53t-32 70q0 38 11.5 79t33 80t52.5 73.5t69 59.5q26 17 67.5 35t89.5 36.5t97 38t90 39.5t68.5 40t32.5 40q0 48 -3 93q-6 63 -14.5 140.5t-17 158.5t-16 159t-11.5 142q0 17 -1 34t0 34q-17 16 -25.5 41.5t-8.5 48.5q0 42 23.5 87t55.5 87q6 8 12 8q9 0 11 -9
q1 -20 5 -36t14.5 -32.5t28.5 -36t47 -47.5q14 -13 18 -22t4 -19q0 -13 -6 -32t-15 -37t-20 -33t-21 -19q5 -77 11.5 -166.5t12.5 -174.5t11 -158t6 -116q0 -32 -4 -62t-10 -55t-12.5 -42.5t-11.5 -24.5z" />
    <glyph glyph-name="uniFEE0_uniFBAF.liga" unicode="&#xfee0;&#xfbaf;" horiz-adv-x="1029" 
d="M1046 332l-17 -172q-52 0 -99 16t-85 48t-64.5 79.5t-37.5 110.5h-9q-7 -27 -19.5 -54t-28 -50.5t-34 -42t-38.5 -28.5q-106 -54 -184 -87.5t-129.5 -56.5t-76.5 -39.5t-25 -36.5q0 -25 32.5 -45t86 -34t123 -21.5t144.5 -7.5h518q48 0 101.5 -1t107.5 -3t106 -6t96 -10
q22 -3 29.5 -17t7.5 -38q0 -46 -9.5 -67t-38.5 -21h-1007q-90 0 -167 12t-133 34t-88 53t-32 70q0 37 12.5 80t35 83.5t52.5 76t66 58.5q50 32 115.5 59t130 56.5t118.5 65.5t81 86q10 18 16.5 45t10.5 58.5t5.5 66.5t1.5 69q0 11 -2.5 52.5t-6.5 98.5t-9 122t-9 123
t-6.5 101.5t-2.5 57.5q0 28 10.5 53.5t33.5 63.5q16 25 30.5 41.5t23.5 16.5q14 0 14 -13q4 -96 12.5 -199t14.5 -200q7 -109 14 -209t14 -205q4 -59 16.5 -112t36 -93t58.5 -64t83 -24z" />
    <glyph glyph-name="uniFEE3_uniFBAF.liga" unicode="&#xfee3;&#xfbaf;" horiz-adv-x="1824" 
d="M711 754q44 0 96 -16.5t97 -42.5t75 -57t30 -59t-9 -61.5t-23 -64t-30 -53t-30 -28.5q-23 -9 -59 -20.5t-78 -24t-86 -27t-81 -29.5q-94 -39 -169.5 -76t-128.5 -69.5t-81.5 -60t-28.5 -46.5q0 -25 27 -45t77 -33.5t120 -21t156 -7.5h651q45 0 98.5 -1t108 -3.5
t107.5 -6.5t97 -10q20 -3 28.5 -14.5t8.5 -40.5q0 -48 -9.5 -68t-38.5 -20h-1140q-91 0 -168 12t-133 34t-87.5 53t-31.5 70q0 45 20.5 95.5t57.5 100t87 95.5t110 83q21 12 55 29t70.5 35.5t72.5 36t62 30.5q-26 30 -43 61.5t-17 65.5q0 28 13 63.5t35 67t51 53t61 21.5z
" />
    <glyph glyph-name="uniFEE4_uniFBAF.liga" unicode="&#xfee4;&#xfbaf;" horiz-adv-x="1306" 
d="M1306 160q-35 0 -63 5.5t-51.5 17t-45 30t-43.5 44.5q-9 -23 -21 -46.5t-27 -42.5t-32 -30.5t-36 -11.5q-43 0 -89 16t-91.5 42.5t-88 60t-79.5 68.5q-16 -30 -33 -51.5t-36.5 -39t-42 -31t-50.5 -26.5q-45 -23 -94.5 -43t-90 -37.5t-67 -33.5t-26.5 -32q0 -25 28 -45
t79 -33.5t122 -21t157 -7.5h651q45 0 98.5 -1t108 -3.5t107.5 -6.5t97 -10q20 -3 28.5 -15t8.5 -40q0 -48 -9.5 -68t-38.5 -20h-1140q-91 0 -168 12t-133 34t-87.5 53t-31.5 70q0 43 13.5 82.5t33 73t41 59t36.5 39.5q42 40 109.5 73.5t158.5 75.5q36 17 71 43t58 69
q15 29 28.5 59t30.5 63q38 87 92.5 139.5t119.5 52.5q43 0 73.5 -22.5t58.5 -62t57.5 -92t70.5 -112.5q18 -35 35.5 -58.5t39 -38.5t49.5 -21.5t69 -6.5zM970 308q13 1 22.5 14.5t10.5 35.5q-5 33 -19 72t-35 74.5t-47.5 62.5t-56.5 36q-21 0 -40.5 -11.5t-36.5 -31
t-30.5 -45.5t-21.5 -54q24 -30 57.5 -56.5t69.5 -47.5t69.5 -34t57.5 -15z" />
    <glyph glyph-name="uniFEEB_uniFBAF.liga" unicode="&#xfeeb;&#xfbaf;" horiz-adv-x="1824" 
d="M608 349q-36 26 -62.5 67t-26.5 96q0 44 15.5 89t41.5 86.5t60.5 77t73.5 60.5v5q-25 5 -37.5 6.5t-26.5 6.5q-14 6 -14 22q0 7 4 23t10.5 35t14.5 39.5t16 37.5q11 23 21 34.5t28 11.5q10 0 25 -6t31.5 -15t33 -19t28.5 -17q87 -56 169 -121t145.5 -137.5t101.5 -152
t38 -163.5q0 -33 -10 -64.5t-26.5 -59t-37.5 -51t-43 -40.5q-11 -9 -30.5 -17t-40.5 -8q-37 0 -81.5 6.5t-91 19t-93 30t-88.5 39.5q-64 -32 -136 -59.5t-144 -48.5q-135 -39 -206 -74t-71 -69q0 -25 32 -45t85.5 -34t123.5 -21.5t145 -7.5h651q45 0 98 -1t108 -3t108 -6
t97 -10q20 -3 28.5 -15.5t8.5 -39.5q0 -46 -9.5 -67t-38.5 -21h-1140q-92 0 -169 12t-133 34t-87 53t-31 70q0 36 11.5 76.5t33.5 79.5t52.5 74.5t68.5 61.5q37 26 82.5 44t93.5 33t97 29.5t93 33.5zM805 753q-23 0 -51.5 -11t-55.5 -32t-49.5 -52.5t-34.5 -71.5
q3 -54 43 -92t112 -65q48 26 88.5 59t59.5 81q-2 37 -11 70.5t-24 58.5t-34.5 40t-42.5 15zM1211 377q-1 22 -14 55t-38.5 71.5t-63.5 80t-88 80.5l-7 -3q3 -14 4.5 -31t1.5 -31q0 -26 -7.5 -54.5t-20.5 -57t-31.5 -55t-40.5 -47.5q18 -7 41 -14.5t47.5 -14t49.5 -10.5
t47 -4q35 0 64 5t56 30z" />
    <glyph glyph-name="uniFBAC_uniFBAF.liga" unicode="&#xfbac;&#xfbaf;" horiz-adv-x="1824" 
d="M608 349q-36 27 -62.5 70t-26.5 101q0 45 11.5 89.5t31 85t44 75.5t50.5 62q102 109 205 109q28 0 48.5 -9.5t36 -23.5t27 -30.5t20.5 -30.5q39 -2 78 -24.5t74 -61.5q69 -78 111 -162.5t42 -177.5q0 -34 -10 -66.5t-26.5 -61t-37.5 -52.5t-43 -41q-11 -9 -30.5 -17
t-40.5 -8q-37 0 -81.5 6.5t-91 19t-93 30t-88.5 39.5q-64 -32 -136 -59.5t-144 -48.5q-135 -39 -206 -74t-71 -69q0 -25 32 -45t85.5 -34t123.5 -21.5t145 -7.5h651q45 0 98 -1t108 -3t108 -6t97 -10q20 -3 28.5 -15.5t8.5 -39.5q0 -46 -9.5 -67t-38.5 -21h-1140
q-92 0 -169 12t-133 34t-87 53t-31 70q0 36 11.5 76.5t33.5 79.5t52.5 74.5t68.5 61.5q37 26 82.5 44t93.5 33t97 29.5t93 33.5zM805 763q-23 0 -51.5 -11t-55.5 -33t-49.5 -54t-34.5 -74q3 -54 43 -94t112 -68q48 27 88.5 62t60.5 83q-2 38 -11.5 72.5t-24.5 60.5t-35 41
t-42 15zM1211 377q-1 24 -15.5 63t-40 82t-60.5 84.5t-77 70.5l-7 -3q3 -17 4.5 -35t1.5 -33q0 -27 -8.5 -56.5t-23.5 -58.5t-35 -56t-44 -50q18 -7 41 -14.5t47.5 -14t49.5 -10.5t47 -4q35 0 64 5t56 30z" />
    <glyph glyph-name="uniFBA8_uniFBAF.liga" unicode="&#xfba8;&#xfbaf;" horiz-adv-x="1824" 
d="M1647 -109q20 -3 28.5 -13t8.5 -42q0 -45 -9.5 -66.5t-38.5 -21.5h-1138q-80 0 -156 10.5t-135 31.5t-95 53t-36 74q0 34 15 74.5t38.5 80t52 73.5t56.5 55q25 19 71 43t97 49.5t98.5 50.5t74.5 48q12 11 29 33t37 49t41.5 55t42.5 51t40 38t34 15q21 0 34 -14.5
t24.5 -37t23 -50.5t29.5 -56q23 -36 51 -60.5t57.5 -39.5t59 -21.5t56.5 -6.5q16 0 27.5 8t19 20.5t11 27.5t3.5 29q0 49 -14 91t-30.5 74.5t-30 56t-13.5 36.5q0 16 9 40.5t22 47.5t27 39t25 16q13 0 32 -34q16 -26 31.5 -60.5t28 -74.5t20 -83.5t7.5 -87.5
q0 -68 -13.5 -125t-38 -98t-60 -64.5t-79.5 -23.5q-67 0 -137.5 26.5t-127.5 89.5q-20 23 -34 47.5t-25 44t-20.5 32t-20.5 12.5t-33.5 -26.5t-49.5 -62.5t-55.5 -72t-51.5 -55q-21 -17 -56.5 -34.5t-76.5 -35t-82.5 -35t-75.5 -34t-55.5 -31.5t-21.5 -29q0 -29 36 -49
t92 -33t125 -19t134 -6h648q45 0 98.5 -1.5t108.5 -4t108.5 -6t97.5 -8.5z" />
    <glyph glyph-name="uniFBA8_uniFEF0.liga" unicode="&#xfba8;&#xfef0;" horiz-adv-x="2029" 
d="M1547 160q-61 0 -101.5 14t-68.5 36.5t-47 51t-37 58.5q-18 28 -33 53.5t-33.5 44.5t-44.5 30t-67 11q-68 0 -129.5 -19t-107.5 -45.5t-73 -54t-27 -44.5q0 -36 51.5 -54.5t160.5 -37.5q49 -9 85 -21t59.5 -30t35 -44t11.5 -63q0 -23 -6.5 -50.5t-16 -54t-21.5 -49
t-23 -35.5q-52 -54 -117 -98.5t-140.5 -76.5t-160.5 -49.5t-176 -17.5q-129 0 -214.5 37.5t-136.5 97.5t-72 135.5t-21 151.5q0 55 9 108t23 102.5t31.5 93.5t34.5 80q12 23 23.5 31t40.5 8q39 0 39 -19q0 -8 -12 -37t-26 -71t-26 -93.5t-12 -104.5q0 -86 26 -149t74.5 -105
t117 -62.5t153.5 -20.5q64 0 136.5 16.5t142 45t130 67.5t100.5 85q0 9 -8 17.5t-28.5 17t-54.5 16.5t-86 16q-45 7 -86 15.5t-72.5 24t-50.5 41.5t-19 68q0 47 20.5 95.5t55.5 93t81.5 83.5t98.5 68t106.5 45.5t105.5 16.5q55 0 95.5 -16t70 -41.5t51 -56t39.5 -59.5
q17 -30 33.5 -53t35.5 -39t43.5 -24t58.5 -9q81 0 155 18.5t123 50.5q-7 57 -28.5 122.5t-69.5 140.5q-8 11 -12.5 20t-4.5 22q0 17 8.5 40.5t20.5 45t25 36.5t22 15q8 0 15 -6t20 -26q19 -28 38 -66.5t34.5 -83.5t25.5 -95t10 -101q0 -45 -9.5 -89.5t-23.5 -82.5
q-7 -20 -16.5 -32t-28.5 -23q-58 -33 -141.5 -55.5t-186.5 -22.5zM1712 132q6 8 14 11.5t33 3.5q31 0 31 -16q0 -5 -13.5 -29.5t-30 -56.5t-30 -66.5t-13.5 -60.5q0 -67 26 -67q8 0 14.5 2t11.5 10l16 24q6 9 17 14.5t31 5.5q30 0 40 -15t10 -30q0 -8 -6.5 -23.5t-16 -33.5
t-21 -35.5t-21.5 -29.5q-9 -12 -19.5 -22t-24 -17.5t-31.5 -12t-42 -4.5q-26 0 -43 14t-27 35t-14 44.5t-4 42.5q0 43 9.5 84t25 80.5t36 76.5t42.5 71z" />
    <glyph glyph-name="uniFED3_uniFEE0_uniFEE0_uniFEEA.liga" unicode="&#xfed3;&#xfee0;&#xfee0;&#xfeea;" horiz-adv-x="2607" 
d="M1991 160q-54 0 -102 9.5t-88 28.5t-69.5 47t-45.5 65h-9q-13 -40 -27.5 -71t-28.5 -47q-20 -21 -53.5 -33t-68.5 -14q-43 -3 -89 4.5t-88.5 30t-79 61.5t-60.5 98h-6q-25 -109 -105 -166t-208 -57q-65 0 -116.5 16.5t-87.5 51.5t-55 89t-19 129h-6q-16 -21 -35.5 -43
t-40.5 -40t-41.5 -29.5t-38.5 -11.5q-36 0 -78.5 2.5t-85 8.5t-82 16.5t-69 27t-46.5 39t-15 53.5q1 21 14.5 51t33 61.5t41.5 59.5t40 45q14 15 48.5 37.5t86.5 51t119.5 61t147.5 67.5v26t2 26q5 37 51 95q17 22 30 35.5t21 13.5q12 0 12 -13q0 -66 -1 -125.5t0 -107.5
q2 -81 3.5 -159.5t5.5 -159.5q2 -56 18 -92.5t43 -58.5t64 -31t80 -9q46 0 88.5 10.5t75.5 31t53.5 50.5t22.5 70q0 19 -5.5 58.5t-14 88.5t-18.5 102.5t-18.5 101.5t-14 85.5t-5.5 53.5q0 23 12 53.5t31 68.5q14 26 26.5 43.5t22.5 17.5q13 0 16 -13q22 -157 44.5 -302.5
t48.5 -293.5q10 -54 33 -92t55 -62.5t70.5 -35.5t80.5 -11q23 0 47.5 5.5t37.5 21.5q0 21 -7.5 73.5t-19 120t-24.5 142.5t-24.5 141t-19 115.5t-7.5 65.5q0 21 11 52t26 59.5t30.5 49t24.5 20.5q14 0 15 -13q7 -62 17 -129.5t21 -135t22 -133t20 -122.5q10 -53 29.5 -110.5
t58 -105t101 -78.5t158.5 -31q56 0 110.5 5t104 15.5t93 26.5t77.5 37q1 7 2 18t1 21q0 22 -4 44.5t-12 42.5l-13 1q-14 -30 -47.5 -53t-90.5 -23q-41 0 -84.5 10.5t-79 35t-58.5 65t-23 100.5q0 68 23.5 134t61.5 117.5t85.5 83.5t94.5 32q57 0 105 -38.5t83 -100t55 -139
t20 -155.5q0 -54 -11 -129t-39 -151q-8 -22 -22 -43t-28 -27q-96 -54 -203 -78t-238 -24zM579 491q0 48 -0.5 96t-0.5 93q0 24 0.5 47.5t0.5 46.5h-3q-17 -20 -39.5 -38t-43.5 -29q-52 -27 -98.5 -54t-85 -51.5t-66.5 -45.5t-44 -37q18 -19 43.5 -32t55.5 -21t62 -11.5
t62 -3.5q36 0 77 8.5t80 31.5zM1084 1405q2 6 7.5 9t20.5 3q24 0 24 -10q0 -16 -3.5 -40t-8.5 -41q8 -5 20 -11t27 -6q20 0 35 14.5t25 36.5t16 48t9 49q1 10 8.5 13t21.5 3q21 0 21 -14q0 -38 -6.5 -81t-23.5 -80t-45.5 -61t-72.5 -24q-27 0 -44.5 11t-26.5 20
q-8 -13 -18 -27t-25 -26t-35.5 -19.5t-48.5 -7.5q-15 0 -28 4t-23.5 14.5t-16.5 29t-6 48.5q0 15 2.5 31.5t7 31.5t10.5 27.5t12 19.5q4 9 24 9q8 0 14 -2.5t6 -8.5q0 -5 -2.5 -12.5t-5 -16t-5 -17.5t-2.5 -16q0 -17 7.5 -29t30.5 -12t39 15t27 37t18.5 46t13.5 42z
M2379 667q-4 33 -17 68t-32.5 64.5t-45 48t-55.5 18.5q-25 0 -47 -12t-38.5 -30.5t-27 -40.5t-11.5 -43q4 -24 20.5 -44.5t41.5 -35.5t56 -23t65 -8q25 0 49.5 10.5t41.5 27.5zM2095 1383q17 25 35.5 40.5t38.5 15.5q12 0 29.5 -7t43.5 -28q26 -20 40.5 -39t14.5 -41
q0 -12 -7 -29t-24 -41q-17 -26 -35.5 -42t-38.5 -16q-11 0 -28.5 6.5t-44.5 27.5q-25 20 -39 40.5t-14 39.5q0 14 6.5 31.5t22.5 41.5zM1140 1479q-2 -7 -6 -8.5t-18 -1.5q-17 0 -17 10q0 37 -2.5 84.5t-15.5 87.5q-13 33 -28.5 54.5t-37.5 43.5q-4 4 -4 19q0 9 2 27
t5.5 35.5t8.5 30.5t10 13q9 0 17 -9q54 -54 77 -124.5t23 -146.5q0 -14 -1 -30t-3 -31.5t-4.5 -29.5t-5.5 -24z" />
    <glyph glyph-name="uniFED3_uniFEE0_uniFEE0_uniFEEA.liga" unicode="&#xfed3;&#xfee0;&#xfee0;&#xfeea;" horiz-adv-x="2607" 
d="M1991 160q-54 0 -102 9.5t-88 28.5t-69.5 47t-45.5 65h-9q-13 -40 -27.5 -71t-28.5 -47q-20 -21 -53.5 -33t-68.5 -14q-43 -3 -89 4.5t-88.5 30t-79 61.5t-60.5 98h-6q-25 -109 -105 -166t-208 -57q-65 0 -116.5 16.5t-87.5 51.5t-55 89t-19 129h-6q-16 -21 -35.5 -43
t-40.5 -40t-41.5 -29.5t-38.5 -11.5q-36 0 -78.5 2.5t-85 8.5t-82 16.5t-69 27t-46.5 39t-15 53.5q1 21 14.5 51t33 61.5t41.5 59.5t40 45q14 15 48.5 37.5t86.5 51t119.5 61t147.5 67.5v26t2 26q5 37 51 95q17 22 30 35.5t21 13.5q12 0 12 -13q0 -66 -1 -125.5t0 -107.5
q2 -81 3.5 -159.5t5.5 -159.5q2 -56 18 -92.5t43 -58.5t64 -31t80 -9q46 0 88.5 10.5t75.5 31t53.5 50.5t22.5 70q0 19 -5.5 58.5t-14 88.5t-18.5 102.5t-18.5 101.5t-14 85.5t-5.5 53.5q0 23 12 53.5t31 68.5q14 26 26.5 43.5t22.5 17.5q13 0 16 -13q22 -157 44.5 -302.5
t48.5 -293.5q10 -54 33 -92t55 -62.5t70.5 -35.5t80.5 -11q23 0 47.5 5.5t37.5 21.5q0 21 -7.5 73.5t-19 120t-24.5 142.5t-24.5 141t-19 115.5t-7.5 65.5q0 21 11 52t26 59.5t30.5 49t24.5 20.5q14 0 15 -13q7 -62 17 -129.5t21 -135t22 -133t20 -122.5q10 -53 29.5 -110.5
t58 -105t101 -78.5t158.5 -31q56 0 110.5 5t104 15.5t93 26.5t77.5 37q1 7 2 18t1 21q0 22 -4 44.5t-12 42.5l-13 1q-14 -30 -47.5 -53t-90.5 -23q-41 0 -84.5 10.5t-79 35t-58.5 65t-23 100.5q0 68 23.5 134t61.5 117.5t85.5 83.5t94.5 32q57 0 105 -38.5t83 -100t55 -139
t20 -155.5q0 -54 -11 -129t-39 -151q-8 -22 -22 -43t-28 -27q-96 -54 -203 -78t-238 -24zM579 491q0 48 -0.5 96t-0.5 93q0 24 0.5 47.5t0.5 46.5h-3q-17 -20 -39.5 -38t-43.5 -29q-52 -27 -98.5 -54t-85 -51.5t-66.5 -45.5t-44 -37q18 -19 43.5 -32t55.5 -21t62 -11.5
t62 -3.5q36 0 77 8.5t80 31.5zM2379 667q-4 33 -17 68t-32.5 64.5t-45 48t-55.5 18.5q-25 0 -47 -12t-38.5 -30.5t-27 -40.5t-11.5 -43q4 -24 20.5 -44.5t41.5 -35.5t56 -23t65 -8q25 0 49.5 10.5t41.5 27.5zM2095 1383q17 25 35.5 40.5t38.5 15.5q12 0 29.5 -7t43.5 -28
q26 -20 40.5 -39t14.5 -41q0 -12 -7 -29t-24 -41q-17 -26 -35.5 -42t-38.5 -16q-11 0 -28.5 6.5t-44.5 27.5q-25 20 -39 40.5t-14 39.5q0 14 6.5 31.5t22.5 41.5z" />
    <glyph glyph-name="uni0620.init" unicode="&#x620;" horiz-adv-x="502" 
d="M0 160q-13 0 -28.5 4.5t-28.5 13t-22 21t-9 28.5v52q0 14 9.5 24t24.5 16.5t33.5 9.5t36.5 3q43 0 86 4.5t83 13.5t75 22t62 29q-7 57 -28.5 122.5t-69.5 140.5q-8 11 -12.5 20t-4.5 22q0 17 8.5 40.5t20.5 45t25 36.5t22 15q8 0 15 -6t20 -26q19 -28 38 -66.5
t34.5 -83.5t25.5 -95t10 -101q0 -44 -9.5 -89t-23.5 -83q-7 -20 -16.5 -32t-28.5 -23q-62 -33 -152.5 -55.5t-195.5 -22.5zM358 -99q0 -36 -7 -70t-27 -60t-55.5 -42t-92.5 -16q-38 0 -65 30.5t-27 81.5q0 41 12 82t30.5 73.5t41.5 53t45 20.5t47.5 -10.5t47 -30.5t36 -48
t14.5 -64zM194 -194q20 0 39 3.5t34 10t24 16t9 20.5q-2 42 -27.5 74t-69.5 32q-11 0 -22 -10.5t-20 -25.5t-14.5 -32.5t-5.5 -30.5q0 -27 10.5 -42t42.5 -15z" />
    <glyph glyph-name="uni0620.medi" unicode="&#x620;" horiz-adv-x="593" 
d="M593 160q-96 0 -164.5 40t-98.5 137h-5q-15 -28 -38.5 -58t-44.5 -47q-23 -17 -51.5 -30.5t-60.5 -22.5t-65.5 -14t-64.5 -5q-13 0 -28.5 4.5t-28.5 13t-22 21t-9 28.5v52q0 14 9.5 24t24.5 16.5t33.5 9.5t36.5 3q25 0 52 4.5t52 12t46 18t36 23.5q18 14 34 41.5t29.5 62
t24.5 74t20 78.5q2 9 5 14.5t11 9.5t23.5 5.5t42.5 1.5q24 0 24 -20q0 -9 -3.5 -27.5t-8 -41.5t-10 -47t-9.5 -44q9 -85 67 -125t157 -40zM349 -100q0 -36 -7 -70t-27 -60t-55.5 -42t-92.5 -16q-38 0 -65 30.5t-27 81.5q0 41 12 82t30.5 73.5t41.5 53t45 20.5t47.5 -10.5
t47 -30.5t36 -48t14.5 -64zM185 -195q20 0 39 3.5t34 10t24 16t9 20.5q-2 42 -27.5 74t-69.5 32q-11 0 -22 -10.5t-20 -25.5t-14.5 -32.5t-5.5 -30.5q0 -27 10.5 -42t42.5 -15z" />
    <glyph glyph-name="uni0620.fina" unicode="&#x620;" horiz-adv-x="1175" 
d="M1175 160q-40 -3 -76 -7t-63.5 -8.5t-44 -9t-16.5 -9.5q0 -3 21 -7t52 -10t68 -13.5t68 -17.5t52 -23t21 -29q0 -18 -5.5 -37.5t-14.5 -38t-20.5 -35.5t-23.5 -30q-41 -41 -108.5 -79t-152.5 -67.5t-182.5 -47.5t-199.5 -18q-129 0 -219.5 32t-147 86t-82 124t-25.5 147
q0 43 9.5 92t24 96t32 89.5t33.5 74.5q12 20 22.5 29.5t40.5 9.5q22 0 30.5 -4.5t8.5 -15.5t-12 -38.5t-26 -65t-26 -81.5t-12 -88q0 -75 28 -132t79 -95t121.5 -57.5t156.5 -19.5q46 0 98.5 4.5t105.5 13t104.5 19.5t95.5 24.5t79 28.5t55 31q-6 8 -31.5 16t-60.5 15
t-74 14.5t-73.5 15.5t-59.5 16.5t-30 19.5q-11 12 -19 27.5t-8 34.5t11 41.5t37 45t68.5 44t104.5 38.5q35 10 89 18.5t114 8.5zM1024 -463q0 -32 -7 -61t-27 -52t-55.5 -36.5t-92.5 -13.5q-38 0 -65 26t-27 70q0 36 12 71.5t30.5 64t41.5 46t45 17.5t47.5 -9t47 -26.5
t36 -42t14.5 -54.5zM860 -547q20 0 39 3t34 8t24 12t9 16q-2 34 -27.5 59.5t-69.5 25.5q-11 0 -22 -8t-20 -20t-14.5 -25.5t-5.5 -25.5q0 -21 10.5 -33t42.5 -12z" />
    <glyph glyph-name="uniFE80" unicode="&#x621;" horiz-adv-x="769" arabic-form="isolated" 
d="M680 452q13 0 13 -10t-3.5 -26.5t-16.5 -45.5q-12 -30 -23.5 -48t-22.5 -21q-96 -20 -166 -41t-119.5 -40.5t-81 -37.5t-50.5 -31t-28.5 -20.5t-13.5 -7.5q-11 0 -14 18.5t-3 39.5q0 22 30 58.5t88 71.5q-64 25 -103 68t-39 93q0 28 12.5 61.5t34.5 67t51.5 65t63 55.5
t70.5 38.5t73 14.5q59 0 95 -25t36 -60q0 -21 -7 -46.5t-22 -51.5q-5 -10 -13 -10q-10 0 -18.5 8.5t-22.5 19t-38 19t-66 8.5q-28 0 -53 -8t-43.5 -21t-29 -29.5t-10.5 -34.5q0 -28 24.5 -51.5t58.5 -40.5t70 -26.5t60 -9.5q30 0 67 6t70.5 12.5t58.5 12.5t31 6z" />
    <glyph glyph-name="uniFE81" unicode="&#x622;" horiz-adv-x="630" arabic-form="isolated" 
d="M354 187q-3 -8 -8 -12t-22 -4t-22.5 4t-6.5 12q-2 21 -1 54t0 68q-3 74 -9 156.5t-13.5 167t-15.5 168t-14.5 159.5t-10.5 142t-4 115q0 26 13 54t33 57q16 24 30 40t25 16q10 0 12 -11q3 -66 8.5 -144.5t11.5 -161.5t12.5 -166t11.5 -158.5t8.5 -140t3.5 -109.5
q0 -112 -14 -191t-28 -115zM625 1626q12 8 22 8q11 0 11 -11q0 -22 -6.5 -34t-17.5 -22q-25 -22 -57 -43.5t-70.5 -38.5t-83.5 -27.5t-94 -10.5q-61 0 -113.5 20.5t-85.5 60.5l-100 -60q-5 -3 -9.5 -5t-9.5 -2q-11 0 -11 12q0 29 4 41t18 22l121 83q15 11 35 11
q10 0 17.5 -3t13.5 -8q20 -17 39 -29.5t41.5 -20.5t50.5 -11.5t66 -3.5q40 0 96 17t123 55z" />
    <glyph glyph-name="uniFE83" unicode="&#x623;" horiz-adv-x="377" arabic-form="isolated" 
d="M254 187q-3 -8 -8 -12t-22 -4t-22.5 4t-6.5 12q-2 20 -1 50t1 62q-4 70 -10 148t-13.5 158t-15.5 159t-14.5 151t-10.5 134t-4 108q0 28 13 55.5t33 56.5q16 25 30 40.5t25 15.5t11 -10q3 -64 9 -139.5t12.5 -155.5t13 -160.5t11.5 -153.5t8.5 -134t3.5 -103
q0 -105 -14.5 -177t-28.5 -105zM355 1540q8 0 8 -7q0 -6 -2.5 -17t-10.5 -32q-8 -20 -15.5 -32.5t-15.5 -14.5q-91 -19 -146 -39t-85 -36.5t-41 -27t-15 -10.5q-8 0 -10 17t-2 38q0 11 17.5 31.5t49.5 40.5q-35 14 -58.5 41.5t-23.5 58.5q0 37 17.5 72t46 62.5t64 44.5
t70.5 17q38 0 62.5 -16t24.5 -38q0 -26 -19 -66q-6 -7 -10 -7q-6 0 -11 5.5t-13.5 12t-22.5 12t-38 5.5q-15 0 -29.5 -5t-26 -14t-18 -20t-6.5 -23q0 -17 14 -31t33.5 -23.5t41 -15t35.5 -5.5q18 0 40 3.5t41.5 7.5t34 7.5t19.5 3.5z" />
    <glyph glyph-name="uniFE85" unicode="&#x624;" horiz-adv-x="890" arabic-form="isolated" 
d="M677 489q-7 43 -22 80t-35 64.5t-44.5 43t-49.5 15.5q-31 0 -52 -13.5t-34.5 -32.5t-20 -39t-8.5 -33q1 -23 13 -44.5t33.5 -38t51.5 -27t66 -10.5q10 0 23.5 2.5t28 7t28 11t22.5 14.5zM688 359q-19 -27 -54 -50t-96 -23q-46 0 -87 16t-72 45.5t-49 69.5t-18 88
q0 74 23 140t59 116t81 79.5t90 29.5q58 0 105 -39.5t79.5 -102.5t50 -143t17.5 -161t-16 -164t-45.5 -160t-72 -144.5t-95 -117.5t-115 -79t-131.5 -29q-62 0 -139.5 17.5t-159.5 63.5q-13 7 -21 13.5t-13 14t-7 17.5t-2 26q0 22 4.5 31t15.5 9q8 0 26 -10t43.5 -21.5
t57 -21.5t66.5 -10q54 0 109 17t106.5 47t97 71t82.5 89t63.5 101t37.5 107q-2 37 -6 68h-15zM707 1137q8 0 8 -7q0 -6 -2.5 -17t-10.5 -32q-8 -20 -15.5 -32.5t-15.5 -14.5q-91 -19 -146 -39t-85 -36.5t-41 -27t-15 -10.5q-8 0 -10 17t-2 38q0 11 17.5 31.5t49.5 40.5
q-35 14 -58.5 41.5t-23.5 58.5q0 37 17.5 72t46 62.5t64 44.5t70.5 17q38 0 62.5 -16t24.5 -38q0 -26 -19 -66q-6 -7 -10 -7q-6 0 -11 5.5t-13.5 12t-22.5 12t-38 5.5q-15 0 -29.5 -5t-26 -14t-18 -20t-6.5 -23q0 -17 14 -31t33.5 -23.5t41 -15t35.5 -5.5q18 0 40 3.5
t41.5 7.5t34 7.5t19.5 3.5z" />
    <glyph glyph-name="uniFE87" unicode="&#x625;" horiz-adv-x="389" arabic-form="isolated" 
d="M254 187q-2 -8 -7 -12t-22 -4t-23 4t-7 12q-1 21 0 54t0 68q-3 74 -9 156.5t-14 167t-15.5 168t-14.5 159.5t-11 142t-4 115q0 26 13 54t33 57q16 24 30 40t25 16q12 0 12 -11q3 -66 8.5 -144.5t11.5 -161.5t12.5 -166t11.5 -158.5t8.5 -140t3.5 -109.5q0 -112 -14 -191
t-28 -115zM387 -121q8 0 8 -7q0 -6 -2.5 -17t-10.5 -32q-8 -20 -15.5 -32.5t-15.5 -14.5q-91 -19 -146 -39t-85 -36.5t-41 -27t-15 -10.5q-8 0 -10 17t-2 38q0 11 17.5 31.5t49.5 40.5q-35 14 -58.5 41.5t-23.5 58.5q0 37 17.5 72t46 62.5t64 44.5t70.5 17q38 0 62.5 -16
t24.5 -38q0 -26 -19 -66q-6 -7 -10 -7q-6 0 -11 5.5t-13.5 12t-22.5 12t-38 5.5q-15 0 -29.5 -5t-26 -14t-18 -20t-6.5 -23q0 -17 14 -31t33.5 -23.5t41 -15t35.5 -5.5q18 0 40 3.5t41.5 7.5t34 7.5t19.5 3.5z" />
    <glyph glyph-name="uniFE89" unicode="&#x626;" horiz-adv-x="1371" arabic-form="isolated" 
d="M1255 858q-8 -12 -20 -12q-10 0 -16.5 11.5t-17 25.5t-30 25.5t-55.5 11.5q-32 0 -68.5 -14.5t-73 -37.5t-70.5 -53t-60.5 -61.5t-42 -61.5t-15.5 -54q0 -37 60.5 -65.5t197.5 -53.5q57 -10 98.5 -22.5t69 -31.5t41 -47.5t13.5 -71.5q0 -24 -6.5 -55.5t-17 -62t-23 -56.5
t-24.5 -38q-57 -60 -131 -111t-160.5 -88t-182.5 -57.5t-198 -20.5q-130 0 -216 38t-137.5 98.5t-72.5 136t-21 150.5q0 56 8.5 109.5t22.5 102.5t31.5 92.5t35.5 79.5q12 22 23.5 30.5t40.5 8.5q39 0 39 -20q0 -8 -12 -37t-26 -71t-26 -93t-12 -103q0 -86 26.5 -149.5
t75 -105.5t118 -63t155.5 -21q75 0 159 19t164 52.5t149.5 78.5t116.5 97q0 8 -8 18t-30 20t-60.5 19.5t-99.5 17.5q-65 9 -117 22t-88.5 35t-56.5 55t-20 81q0 57 21 119t56.5 121t83 112t101 93t110 63.5t109.5 23.5q66 0 99 -30.5t33 -78.5q0 -13 -4 -29t-10 -32.5
t-14 -31.5t-15 -27zM426 950q8 0 8 -7q0 -6 -2.5 -17t-10.5 -32q-8 -20 -15.5 -32.5t-15.5 -14.5q-91 -19 -146 -39t-85 -36.5t-41 -27t-15 -10.5q-8 0 -10 17t-2 38q0 11 17.5 31.5t49.5 40.5q-35 14 -58.5 41.5t-23.5 58.5q0 37 17.5 72t46 62.5t64 44.5t70.5 17
q38 0 62.5 -16t24.5 -38q0 -26 -19 -66q-6 -7 -10 -7q-6 0 -11 5.5t-13.5 12t-22.5 12t-38 5.5q-15 0 -29.5 -5t-26 -14t-18 -20t-6.5 -23q0 -17 14 -31t33.5 -23.5t41 -15t35.5 -5.5q18 0 40 3.5t41.5 7.5t34 7.5t19.5 3.5z" />
    <glyph glyph-name="uniFE8D" unicode="&#x627;" horiz-adv-x="389" arabic-form="isolated" 
d="M254 187q-2 -8 -7 -12t-22 -4t-23 4t-7 12q-1 21 0 54t0 68q-3 74 -9 156.5t-14 167t-15.5 168t-14.5 159.5t-11 142t-4 115q0 26 13 54t33 57q16 24 30 40t25 16q12 0 12 -11q3 -66 8.5 -144.5t11.5 -161.5t12.5 -166t11.5 -158.5t8.5 -140t3.5 -109.5q0 -112 -14 -191
t-28 -115z" />
    <glyph glyph-name="uniFE8F" unicode="&#x628;" horiz-adv-x="1641" arabic-form="isolated" 
d="M1477 265q-366 -146 -812 -146q-171 0 -284 31.5t-181 84.5t-96 122.5t-28 144.5q0 83 19.5 148.5t44.5 113.5q7 14 12.5 23t12 13.5t16 6t24.5 1.5q22 0 30.5 -4.5t8.5 -16.5q0 -9 -8.5 -28t-18 -46t-18 -61.5t-8.5 -75.5q0 -58 26.5 -108.5t87.5 -87.5t160 -58t244 -21
q64 0 133.5 4.5t140 13t139 20t130.5 25.5t115.5 30t92.5 34q-1 33 -8 67t-19 67.5t-27.5 64.5t-31.5 58q-6 11 -9.5 21t-3.5 21q0 19 8.5 43.5t20.5 46t25 36t22 14.5q11 0 19 -8.5t20 -28.5q18 -32 34 -70.5t28.5 -80t19.5 -84.5t7 -84q0 -45 -9.5 -93t-26.5 -92
q-8 -20 -21.5 -37t-30.5 -24zM786 -115q17 25 35.5 40.5t38.5 15.5q12 0 29.5 -7t43.5 -28q26 -20 40.5 -39.5t14.5 -40.5q0 -12 -7 -29t-24 -41q-17 -26 -35.5 -42t-38.5 -16q-11 0 -28.5 6.5t-44.5 27.5q-25 20 -39 40.5t-14 38.5q0 15 6.5 32.5t22.5 41.5z" />
    <glyph glyph-name="uniFE93" unicode="&#x629;" horiz-adv-x="710" arabic-form="isolated" 
d="M225 944q14 0 41.5 -9.5t59.5 -23.5t64 -31.5t55 -33.5q51 -37 87 -70t58.5 -70.5t33 -84.5t10.5 -113q0 -32 -5.5 -66.5t-16 -66.5t-25 -61t-32.5 -51q-15 -17 -39.5 -35t-57.5 -32.5t-74.5 -23.5t-91.5 -9q-115 0 -165.5 58.5t-50.5 179.5q0 46 10 94t26 94.5t37 91
t43 83.5q-11 5 -20.5 11t-9.5 14q0 11 6.5 36.5t16.5 52t21 46.5t19 20zM550 471q0 34 -24.5 71t-62.5 71.5t-84 63.5t-90 49q-21 -22 -43.5 -52t-41 -62.5t-30 -65t-11.5 -58.5q0 -21 8 -45t26.5 -45t49.5 -35t76 -14q51 0 93 12t72 30t46 39.5t16 40.5zM153 1255
q15 22 31 36t33 14q12 0 27 -6.5t38 -24.5q48 -37 48 -72q0 -11 -6 -27t-20 -37q-17 -23 -32.5 -37.5t-33.5 -14.5q-11 0 -26 5.5t-38 25.5q-22 17 -34.5 36t-12.5 36q0 14 6 29t20 37zM373 1270q14 22 30 36t34 14q11 0 26 -6t39 -25q48 -37 48 -72q0 -11 -6 -27t-20 -37
q-17 -24 -33 -37.5t-33 -13.5q-11 0 -26 6t-39 25q-21 18 -34 36t-13 35q0 13 5.5 28t21.5 38z" />
    <glyph glyph-name="uniFE95" unicode="&#x62a;" horiz-adv-x="1641" arabic-form="isolated" 
d="M1477 265q-366 -146 -812 -146q-171 0 -284 31.5t-181 84.5t-96 122.5t-28 144.5q0 83 19.5 148.5t44.5 113.5q7 14 12.5 23t12 13.5t16 6t24.5 1.5q22 0 30.5 -4.5t8.5 -16.5q0 -9 -8.5 -28t-18 -46t-18 -61.5t-8.5 -75.5q0 -58 26.5 -108.5t87.5 -87.5t160 -58t244 -21
q64 0 133.5 4.5t140 13t139 20t130.5 25.5t115.5 30t92.5 34q-1 33 -8 67t-19 67.5t-27.5 64.5t-31.5 58q-6 11 -9.5 21t-3.5 21q0 19 8.5 43.5t20.5 46t25 36t22 14.5q11 0 19 -8.5t20 -28.5q18 -32 34 -70.5t28.5 -80t19.5 -84.5t7 -84q0 -45 -9.5 -93t-26.5 -92
q-8 -20 -21.5 -37t-30.5 -24zM636 983q15 22 31 36t33 14q12 0 27 -6.5t38 -24.5q48 -37 48 -72q0 -11 -6 -27t-20 -37q-17 -23 -32.5 -37.5t-33.5 -14.5q-11 0 -26 5.5t-38 25.5q-22 17 -34.5 36t-12.5 36q0 14 6 29t20 37zM856 998q14 22 30 36t34 14q11 0 26 -6t39 -25
q48 -37 48 -72q0 -11 -6 -27t-20 -37q-17 -24 -33 -37.5t-33 -13.5q-11 0 -26 6t-39 25q-21 18 -34 36t-13 35q0 13 5.5 28t21.5 38z" />
    <glyph glyph-name="uniFE99" unicode="&#x62b;" horiz-adv-x="1641" arabic-form="isolated" 
d="M1477 265q-366 -146 -812 -146q-171 0 -284 31.5t-181 84.5t-96 122.5t-28 144.5q0 83 19.5 148.5t44.5 113.5q7 14 12.5 23t12 13.5t16 6t24.5 1.5q22 0 30.5 -4.5t8.5 -16.5q0 -9 -8.5 -28t-18 -46t-18 -61.5t-8.5 -75.5q0 -58 26.5 -108.5t87.5 -87.5t160 -58t244 -21
q64 0 133.5 4.5t140 13t139 20t130.5 25.5t115.5 30t92.5 34q-1 33 -8 67t-19 67.5t-27.5 64.5t-31.5 58q-6 11 -9.5 21t-3.5 21q0 19 8.5 43.5t20.5 46t25 36t22 14.5q11 0 19 -8.5t20 -28.5q18 -32 34 -70.5t28.5 -80t19.5 -84.5t7 -84q0 -45 -9.5 -93t-26.5 -92
q-8 -20 -21.5 -37t-30.5 -24zM637 955q14 22 30.5 35.5t33.5 13.5q12 0 27 -6.5t38 -24.5t35.5 -34.5t12.5 -35.5q0 -11 -6 -26.5t-20 -35.5q-17 -23 -32.5 -37.5t-33.5 -14.5q-11 0 -26 5.5t-38 25.5q-22 17 -34.5 35t-12.5 35q0 13 5.5 28.5t20.5 36.5zM857 970
q14 21 30 34.5t34 13.5q11 0 26 -6t39 -24q23 -18 35.5 -35t12.5 -35q0 -23 -27 -63q-16 -24 -32 -37.5t-33 -13.5q-11 0 -26 5.5t-39 24.5q-22 17 -34.5 35.5t-12.5 35.5q0 13 5.5 27.5t21.5 37.5zM720 1186q14 22 30.5 36t34.5 14q11 0 26 -6t38 -24q48 -36 48 -71
q0 -11 -5.5 -26.5t-21.5 -35.5q-16 -24 -31.5 -37.5t-33.5 -13.5q-10 0 -25 5t-39 24q-22 18 -34.5 36t-12.5 35q0 13 5.5 28t20.5 36z" />
    <glyph glyph-name="uniFE9D" unicode="&#x62c;" horiz-adv-x="1226" arabic-form="isolated" 
d="M632 668q-81 15 -171 31.5t-181 16.5q-52 0 -83.5 -9.5t-50.5 -21t-29.5 -21t-21.5 -9.5q-8 0 -10.5 6t-2.5 24q0 16 1 24.5t5 16.5q14 32 33.5 61t46 51t61.5 35t81 13q53 0 106 -6t109 -15.5t117.5 -20.5t131.5 -21q71 -12 151.5 -20t159.5 -8q13 0 13 -14
q0 -7 -4.5 -24.5t-16.5 -45.5q-19 -39 -33.5 -61.5t-28.5 -23.5q-54 -2 -132 -8t-182 -36q-107 -31 -203.5 -84t-169 -124.5t-115 -158t-42.5 -184.5q0 -122 56 -205t152.5 -135t227 -75t280.5 -24q48 0 93.5 2t83 5t63.5 5.5t36 2.5q8 0 11.5 -6t3.5 -22q0 -21 -4 -31
t-13 -14q-48 -21 -102 -41t-108 -35.5t-104 -24.5t-88 -9q-192 0 -323 38.5t-211 110t-114.5 172t-34.5 225.5q0 68 12 127.5t31 111t43.5 94.5t50 77.5t50 60t43.5 42.5q70 62 154.5 107t171.5 74v4zM598 173q17 25 35.5 40.5t38.5 15.5q12 0 29.5 -7t43.5 -28
q26 -20 40.5 -39.5t14.5 -40.5q0 -12 -7 -29t-24 -41q-17 -26 -35.5 -42t-38.5 -16q-11 0 -28.5 6.5t-44.5 27.5q-25 20 -39 40.5t-14 38.5q0 15 6.5 32.5t22.5 41.5z" />
    <glyph glyph-name="uniFEA1" unicode="&#x62d;" horiz-adv-x="1226" arabic-form="isolated" 
d="M632 668q-81 15 -171 31.5t-181 16.5q-52 0 -83.5 -9.5t-50.5 -21t-29.5 -21t-21.5 -9.5q-8 0 -10.5 6t-2.5 24q0 16 1 24.5t5 16.5q14 32 33.5 61t46 51t61.5 35t81 13q53 0 106 -6t109 -15.5t117.5 -20.5t131.5 -21q71 -12 151.5 -20t159.5 -8q13 0 13 -14
q0 -7 -4.5 -24.5t-16.5 -45.5q-19 -39 -33.5 -61.5t-28.5 -23.5q-54 -2 -132 -8t-182 -36q-107 -31 -203.5 -84t-169 -124.5t-115 -158t-42.5 -184.5q0 -122 56 -205t152.5 -135t227 -75t280.5 -24q48 0 93.5 2t83 5t63.5 5.5t36 2.5q8 0 11.5 -6t3.5 -22q0 -21 -4 -31
t-13 -14q-48 -21 -102 -41t-108 -35.5t-104 -24.5t-88 -9q-192 0 -323 38.5t-211 110t-114.5 172t-34.5 225.5q0 68 12 127.5t31 111t43.5 94.5t50 77.5t50 60t43.5 42.5q70 62 154.5 107t171.5 74v4z" />
    <glyph glyph-name="uniFEA5" unicode="&#x62e;" horiz-adv-x="1226" arabic-form="isolated" 
d="M632 668q-81 15 -171 31.5t-181 16.5q-52 0 -83.5 -9.5t-50.5 -21t-29.5 -21t-21.5 -9.5q-8 0 -10.5 6t-2.5 24q0 16 1 24.5t5 16.5q14 32 33.5 61t46 51t61.5 35t81 13q53 0 106 -6t109 -15.5t117.5 -20.5t131.5 -21q71 -12 151.5 -20t159.5 -8q13 0 13 -14
q0 -7 -4.5 -24.5t-16.5 -45.5q-19 -39 -33.5 -61.5t-28.5 -23.5q-54 -2 -132 -8t-182 -36q-107 -31 -203.5 -84t-169 -124.5t-115 -158t-42.5 -184.5q0 -122 56 -205t152.5 -135t227 -75t280.5 -24q48 0 93.5 2t83 5t63.5 5.5t36 2.5q8 0 11.5 -6t3.5 -22q0 -21 -4 -31
t-13 -14q-48 -21 -102 -41t-108 -35.5t-104 -24.5t-88 -9q-192 0 -323 38.5t-211 110t-114.5 172t-34.5 225.5q0 68 12 127.5t31 111t43.5 94.5t50 77.5t50 60t43.5 42.5q70 62 154.5 107t171.5 74v4zM466 1235q17 25 35.5 40.5t38.5 15.5q12 0 29.5 -7t43.5 -28
q26 -20 40.5 -39t14.5 -41q0 -12 -7 -29t-24 -41q-17 -26 -35.5 -42t-38.5 -16q-11 0 -28.5 6.5t-44.5 27.5q-25 20 -39 40.5t-14 39.5q0 14 6.5 31.5t22.5 41.5z" />
    <glyph glyph-name="uniFEA9" unicode="&#x62f;" horiz-adv-x="839" arabic-form="isolated" 
d="M703 227q-33 -18 -81.5 -35t-102.5 -30t-110.5 -20.5t-106.5 -7.5q-62 0 -100.5 6.5t-61.5 21t-33 36.5t-13 53q-3 17 -4.5 36.5t0.5 43.5q1 20 2 46.5t5 49.5q2 8 8 11.5t23 3.5t23 -3.5t6 -11.5q0 -27 7.5 -48.5t26.5 -36t52.5 -22t84.5 -7.5q33 0 72 4t78 11t75.5 15
t64.5 17t45 17t17 14q-1 37 -16 79.5t-39 86t-55.5 85.5t-65.5 77t-68.5 61t-65.5 38l-29 8q-11 4 -18.5 7t-7.5 11q0 7 4.5 23.5t12 36.5t16.5 40.5t17 35.5q6 10 13.5 19t23.5 9q11 0 25.5 -5.5t28.5 -15.5q79 -56 138 -127t98 -146t58 -148.5t19 -133.5q0 -51 -8 -91
t-20 -70q-11 -29 -38 -44z" />
    <glyph glyph-name="uniFEAB" unicode="&#x630;" horiz-adv-x="839" arabic-form="isolated" 
d="M703 227q-33 -18 -81.5 -35t-102.5 -30t-110.5 -20.5t-106.5 -7.5q-62 0 -100.5 6.5t-61.5 21t-33 36.5t-13 53q-3 17 -4.5 36.5t0.5 43.5q1 20 2 46.5t5 49.5q2 8 8 11.5t23 3.5t23 -3.5t6 -11.5q0 -27 7.5 -48.5t26.5 -36t52.5 -22t84.5 -7.5q33 0 72 4t78 11t75.5 15
t64.5 17t45 17t17 14q-1 37 -16 79.5t-39 86t-55.5 85.5t-65.5 77t-68.5 61t-65.5 38l-29 8q-11 4 -18.5 7t-7.5 11q0 7 4.5 23.5t12 36.5t16.5 40.5t17 35.5q6 10 13.5 19t23.5 9q11 0 25.5 -5.5t28.5 -15.5q79 -56 138 -127t98 -146t58 -148.5t19 -133.5q0 -51 -8 -91
t-20 -70q-11 -29 -38 -44zM303 1357q17 25 35.5 40.5t38.5 15.5q12 0 29.5 -7t43.5 -28q26 -20 40.5 -39t14.5 -41q0 -12 -7 -29t-24 -41q-17 -26 -35.5 -42t-38.5 -16q-11 0 -28.5 6.5t-44.5 27.5q-25 20 -39 40.5t-14 39.5q0 14 6.5 31.5t22.5 41.5z" />
    <glyph glyph-name="uniFEAD" unicode="&#x631;" horiz-adv-x="856" arabic-form="isolated" 
d="M559 615q-8 11 -11.5 19.5t-3.5 20.5q0 20 6 46.5t15 50.5t20 40.5t21 16.5q11 0 19 -10t19 -24q27 -38 52 -85t44.5 -101.5t31 -117t11.5 -131.5q0 -62 -15.5 -130.5t-44 -135t-69 -127t-90 -106.5t-106.5 -73t-120 -27q-66 0 -141 20t-154 66q-13 8 -21.5 14t-13 13
t-6.5 17t-2 26q0 41 20 41q9 0 27 -9.5t43 -21.5t56.5 -21.5t68.5 -9.5q62 0 121.5 24t112.5 62t97.5 85t76.5 94t50 88.5t18 68.5q0 25 -11.5 64.5t-30 83.5t-42 88.5t-48.5 80.5z" />
    <glyph glyph-name="uniFEAF" unicode="&#x632;" horiz-adv-x="856" arabic-form="isolated" 
d="M559 615q-8 11 -11.5 19.5t-3.5 20.5q0 20 6 46.5t15 50.5t20 40.5t21 16.5q11 0 19 -10t19 -24q27 -38 52 -85t44.5 -101.5t31 -117t11.5 -131.5q0 -62 -15.5 -130.5t-44 -135t-69 -127t-90 -106.5t-106.5 -73t-120 -27q-66 0 -141 20t-154 66q-13 8 -21.5 14t-13 13
t-6.5 17t-2 26q0 41 20 41q9 0 27 -9.5t43 -21.5t56.5 -21.5t68.5 -9.5q62 0 121.5 24t112.5 62t97.5 85t76.5 94t50 88.5t18 68.5q0 25 -11.5 64.5t-30 83.5t-42 88.5t-48.5 80.5zM455 1197q17 25 35.5 40.5t38.5 15.5q12 0 29.5 -7t43.5 -28q26 -20 40.5 -39t14.5 -41
q0 -12 -7 -29t-24 -41q-17 -26 -35.5 -42t-38.5 -16q-11 0 -28.5 6.5t-44.5 27.5q-25 20 -39 40.5t-14 39.5q0 14 6.5 31.5t22.5 41.5z" />
    <glyph glyph-name="uniFEB1" unicode="&#x633;" horiz-adv-x="1835" arabic-form="isolated" 
d="M1623 590q0 11 6 30t26 50q34 51 45 51q9 0 14 -13q7 -15 15 -39t14.5 -52.5t11 -59t4.5 -58.5q0 -44 -11 -97t-32.5 -99t-52.5 -77t-71 -31q-38 0 -77.5 13.5t-74 33t-60 41.5t-36.5 38q-17 -30 -41 -52.5t-52.5 -38t-60.5 -24t-64 -9.5q-22 -1 -42 0.5t-40 3.5
q0 -14 0.5 -29.5t0.5 -32.5q0 -45 -11.5 -102t-32.5 -105q-33 -63 -86.5 -115t-122 -89t-149.5 -57.5t-169 -20.5q-108 0 -183.5 29.5t-123 81t-69.5 120.5t-22 147q0 92 25 179.5t65 169.5q11 21 22.5 28.5t39.5 7.5q39 0 39 -19q0 -9 -10 -33t-22 -59.5t-22 -80t-10 -92.5
q0 -68 18 -122.5t55 -93t94.5 -59.5t136.5 -21q65 0 131.5 15.5t125.5 44t106.5 69t75.5 90.5q1 98 -21.5 198t-73.5 192q-6 11 -10 20.5t-4 21.5q0 18 8 42t19 45t23 35.5t20 14.5q9 0 16 -10.5t15 -27.5q18 -38 33 -73.5t30 -77.5q18 -37 49 -51.5t65 -14.5q58 0 98.5 19
t68.5 54t47 84t35 108q2 8 11 12.5t35 4.5q23 0 31 -4t8 -12q0 -13 -3.5 -32.5t-8.5 -40.5t-11 -42t-10 -36q12 -27 36 -49.5t52.5 -38.5t58 -25t52.5 -9q26 0 39 19t13 64q0 28 -7 53t-15 44.5t-15 32.5t-7 18z" />
    <glyph glyph-name="uniFEB5" unicode="&#x634;" horiz-adv-x="1835" arabic-form="isolated" 
d="M1623 590q0 11 6 30t26 50q34 51 45 51q9 0 14 -13q7 -15 15 -39t14.5 -52.5t11 -59t4.5 -58.5q0 -44 -11 -97t-32.5 -99t-52.5 -77t-71 -31q-38 0 -77.5 13.5t-74 33t-60 41.5t-36.5 38q-17 -30 -41 -52.5t-52.5 -38t-60.5 -24t-64 -9.5q-22 -1 -42 0.5t-40 3.5
q0 -14 0.5 -29.5t0.5 -32.5q0 -45 -11.5 -102t-32.5 -105q-33 -63 -86.5 -115t-122 -89t-149.5 -57.5t-169 -20.5q-108 0 -183.5 29.5t-123 81t-69.5 120.5t-22 147q0 92 25 179.5t65 169.5q11 21 22.5 28.5t39.5 7.5q39 0 39 -19q0 -9 -10 -33t-22 -59.5t-22 -80t-10 -92.5
q0 -68 18 -122.5t55 -93t94.5 -59.5t136.5 -21q65 0 131.5 15.5t125.5 44t106.5 69t75.5 90.5q1 98 -21.5 198t-73.5 192q-6 11 -10 20.5t-4 21.5q0 18 8 42t19 45t23 35.5t20 14.5q9 0 16 -10.5t15 -27.5q18 -38 33 -73.5t30 -77.5q18 -37 49 -51.5t65 -14.5q58 0 98.5 19
t68.5 54t47 84t35 108q2 8 11 12.5t35 4.5q23 0 31 -4t8 -12q0 -13 -3.5 -32.5t-8.5 -40.5t-11 -42t-10 -36q12 -27 36 -49.5t52.5 -38.5t58 -25t52.5 -9q26 0 39 19t13 64q0 28 -7 53t-15 44.5t-15 32.5t-7 18zM1085 971q14 22 30.5 35.5t33.5 13.5q12 0 27 -6.5t38 -24.5
t35.5 -34.5t12.5 -35.5q0 -11 -6 -26.5t-20 -35.5q-17 -23 -32.5 -37.5t-33.5 -14.5q-11 0 -26 5.5t-38 25.5q-22 17 -34.5 35t-12.5 35q0 13 5.5 28.5t20.5 36.5zM1305 986q14 21 30 34.5t34 13.5q11 0 26 -6t39 -24q23 -18 35.5 -35t12.5 -35q0 -23 -27 -63
q-16 -24 -32 -37.5t-33 -13.5q-11 0 -26 5.5t-39 24.5q-22 17 -34.5 35.5t-12.5 35.5q0 13 5.5 27.5t21.5 37.5zM1168 1202q14 22 30.5 36t34.5 14q11 0 26 -6t38 -24q48 -36 48 -71q0 -11 -5.5 -26.5t-21.5 -35.5q-16 -24 -31.5 -37.5t-33.5 -13.5q-10 0 -25 5t-39 24
q-22 18 -34.5 36t-12.5 35q0 13 5.5 28t20.5 36z" />
    <glyph glyph-name="uniFEB9" unicode="&#x635;" horiz-adv-x="2118" arabic-form="isolated" 
d="M1044 193q0 -13 0.5 -27t0.5 -26q0 -105 -41.5 -194.5t-116.5 -155t-180.5 -102.5t-233.5 -37q-198 0 -297.5 99.5t-99.5 284.5q0 45 7.5 91t20 90t28.5 84t32 73q6 12 11.5 19.5t12.5 12t16.5 6.5t23.5 2q39 0 39 -19q0 -8 -10 -32.5t-22 -60t-22 -80t-10 -92.5
q0 -138 77.5 -217t228.5 -79q66 0 132 14.5t124.5 42.5t105.5 68.5t75 91.5q0 60 -6.5 113t-18.5 101t-30 92.5t-41 87.5q-13 20 -13 40q0 18 8 42t19 45t23 35.5t20 14.5q9 0 16 -10.5t17 -27.5l45 -94q24 -50 49 -79t54 -34q40 40 87 87.5t100 95.5t111 93.5t118.5 80
t123.5 55.5t126 21q52 0 103.5 -22.5t92 -58t66 -77.5t25.5 -81q0 -43 -11.5 -85t-30 -80.5t-43 -71t-50.5 -56.5q-39 -24 -100.5 -45t-135.5 -36.5t-155.5 -25t-161.5 -9.5q-77 0 -155.5 6.5t-153.5 25.5zM1913 442q2 13 -0.5 25t-4.5 26q-6 30 -27 59t-52.5 51.5
t-70.5 36.5t-81 14q-44 0 -103.5 -23t-125.5 -64t-134 -98t-130 -124q49 -8 96 -10.5t101 -2.5q77 0 155.5 8.5t149.5 23t130 34.5t97 44z" />
    <glyph glyph-name="uniFEBD" unicode="&#x636;" horiz-adv-x="2118" arabic-form="isolated" 
d="M1044 193q0 -13 0.5 -27t0.5 -26q0 -105 -41.5 -194.5t-116.5 -155t-180.5 -102.5t-233.5 -37q-198 0 -297.5 99.5t-99.5 284.5q0 45 7.5 91t20 90t28.5 84t32 73q6 12 11.5 19.5t12.5 12t16.5 6.5t23.5 2q39 0 39 -19q0 -8 -10 -32.5t-22 -60t-22 -80t-10 -92.5
q0 -138 77.5 -217t228.5 -79q66 0 132 14.5t124.5 42.5t105.5 68.5t75 91.5q0 60 -6.5 113t-18.5 101t-30 92.5t-41 87.5q-13 20 -13 40q0 18 8 42t19 45t23 35.5t20 14.5q9 0 16 -10.5t17 -27.5l45 -94q24 -50 49 -79t54 -34q40 40 87 87.5t100 95.5t111 93.5t118.5 80
t123.5 55.5t126 21q52 0 103.5 -22.5t92 -58t66 -77.5t25.5 -81q0 -43 -11.5 -85t-30 -80.5t-43 -71t-50.5 -56.5q-39 -24 -100.5 -45t-135.5 -36.5t-155.5 -25t-161.5 -9.5q-77 0 -155.5 6.5t-153.5 25.5zM1913 442q2 13 -0.5 25t-4.5 26q-6 30 -27 59t-52.5 51.5
t-70.5 36.5t-81 14q-44 0 -103.5 -23t-125.5 -64t-134 -98t-130 -124q49 -8 96 -10.5t101 -2.5q77 0 155.5 8.5t149.5 23t130 34.5t97 44zM1315 1094q17 25 35.5 40.5t38.5 15.5q12 0 29.5 -7t43.5 -28q26 -20 40.5 -39t14.5 -41q0 -12 -7 -29t-24 -41q-17 -26 -35.5 -42
t-38.5 -16q-11 0 -28.5 6.5t-44.5 27.5q-25 20 -39 40.5t-14 39.5q0 14 6.5 31.5t22.5 41.5z" />
    <glyph glyph-name="uniFEC1" unicode="&#x637;" horiz-adv-x="1564" arabic-form="isolated" 
d="M611 322q149 3 275.5 18.5t224 39.5t164 55.5t95.5 66.5q-4 23 -24.5 53t-53 57t-76 46t-94.5 19q-54 0 -118 -29t-131.5 -78t-134.5 -113.5t-127 -134.5zM1323 287q-161 -74 -360.5 -107.5t-431.5 -36.5h-55.5t-53.5 2q-33 2 -77 14.5t-91 30.5t-93 40t-84 43
q-9 5 -13.5 14.5t-4.5 30.5q0 27 15 27q10 0 42.5 -4t85 -8.5t124 -8.5t159.5 -4l63 76q6 9 10 25t6.5 34.5t4 38t1.5 36.5q-4 59 -12 138.5t-16.5 162.5t-16.5 162t-11 138q-2 20 -2.5 37.5t0.5 33.5q-17 19 -25.5 43.5t-8.5 47.5q0 19 6.5 40.5t17.5 44t25 45.5t30 44
q6 8 12 8q8 0 10 -9q2 -20 7 -36.5t15.5 -33.5t28 -36.5t45.5 -45.5q14 -13 18 -22t4 -19q0 -13 -6 -32t-15 -37t-20 -33t-22 -19q3 -60 7 -130t8 -140.5t7.5 -138t4.5 -123.5q0 -30 -2.5 -61.5t-8.5 -57.5q54 55 119 114.5t135.5 109t143.5 81.5t144 32q51 0 103.5 -23.5
t95.5 -59.5t70 -80t27 -85q0 -42 -12 -84.5t-34 -82t-52 -74.5t-67 -62z" />
    <glyph glyph-name="uniFEC5" unicode="&#x638;" horiz-adv-x="1564" arabic-form="isolated" 
d="M611 322q149 3 275.5 18.5t224 39.5t164 55.5t95.5 66.5q-4 23 -24.5 53t-53 57t-76 46t-94.5 19q-54 0 -118 -29t-131.5 -78t-134.5 -113.5t-127 -134.5zM1323 287q-161 -74 -360.5 -107.5t-431.5 -36.5h-55.5t-53.5 2q-33 2 -77 14.5t-91 30.5t-93 40t-84 43
q-9 5 -13.5 14.5t-4.5 30.5q0 27 15 27q10 0 42.5 -4t85 -8.5t124 -8.5t159.5 -4l63 76q6 9 10 25t6.5 34.5t4 38t1.5 36.5q-4 59 -12 138.5t-16.5 162.5t-16.5 162t-11 138q-2 20 -2.5 37.5t0.5 33.5q-17 19 -25.5 43.5t-8.5 47.5q0 19 6.5 40.5t17.5 44t25 45.5t30 44
q6 8 12 8q8 0 10 -9q2 -20 7 -36.5t15.5 -33.5t28 -36.5t45.5 -45.5q14 -13 18 -22t4 -19q0 -13 -6 -32t-15 -37t-20 -33t-22 -19q3 -60 7 -130t8 -140.5t7.5 -138t4.5 -123.5q0 -30 -2.5 -61.5t-8.5 -57.5q54 55 119 114.5t135.5 109t143.5 81.5t144 32q51 0 103.5 -23.5
t95.5 -59.5t70 -80t27 -85q0 -42 -12 -84.5t-34 -82t-52 -74.5t-67 -62zM932 1202q17 25 35.5 40.5t38.5 15.5q12 0 29.5 -7t43.5 -28q26 -20 40.5 -39t14.5 -41q0 -12 -7 -29t-24 -41q-17 -26 -35.5 -42t-38.5 -16q-11 0 -28.5 6.5t-44.5 27.5q-25 20 -39 40.5t-14 39.5
q0 14 6.5 31.5t22.5 41.5z" />
    <glyph glyph-name="uniFEC9" unicode="&#x639;" horiz-adv-x="1205" arabic-form="isolated" 
d="M872 772q0 -13 -6.5 -36.5t-17 -48t-23 -44.5t-25.5 -25q-147 -58 -263 -123t-197 -139.5t-124 -159t-43 -181.5q0 -105 45 -181t128 -127t201.5 -78t264.5 -35q63 -4 118.5 -3t101.5 3.5t80 6t54 5.5q16 0 16 -28q0 -22 -4 -32t-14 -13q-47 -21 -101.5 -40.5t-110 -35
t-109 -25t-98.5 -9.5q-197 0 -326 40.5t-205.5 112t-107 168t-30.5 209.5q0 107 24.5 194t62 156t83 120.5t87.5 88.5q-41 19 -82 48t-74 64.5t-53.5 75t-20.5 79.5q0 41 12 86t33.5 87.5t51.5 81t66 67.5t77 46t85 17q48 0 85.5 -8.5t67.5 -22t53 -30.5t43 -33
q17 -13 23 -26.5t6 -42.5q0 -35 -20 -35q-8 0 -24.5 10t-40 21.5t-52 21.5t-60.5 10q-34 0 -76 -11t-83.5 -31.5t-78 -49.5t-58.5 -66q0 -23 14.5 -47.5t38.5 -48.5t54 -45.5t60.5 -38t58.5 -26t48 -9.5q12 0 28.5 4.5t36.5 12t42 17t43 19.5l199 83q20 9 28 3t8 -23z" />
    <glyph glyph-name="uniFECD" unicode="&#x63a;" horiz-adv-x="1205" arabic-form="isolated" 
d="M872 772q0 -13 -6.5 -36.5t-17 -48t-23 -44.5t-25.5 -25q-147 -58 -263 -123t-197 -139.5t-124 -159t-43 -181.5q0 -105 45 -181t128 -127t201.5 -78t264.5 -35q63 -4 118.5 -3t101.5 3.5t80 6t54 5.5q16 0 16 -28q0 -22 -4 -32t-14 -13q-47 -21 -101.5 -40.5t-110 -35
t-109 -25t-98.5 -9.5q-197 0 -326 40.5t-205.5 112t-107 168t-30.5 209.5q0 107 24.5 194t62 156t83 120.5t87.5 88.5q-41 19 -82 48t-74 64.5t-53.5 75t-20.5 79.5q0 41 12 86t33.5 87.5t51.5 81t66 67.5t77 46t85 17q48 0 85.5 -8.5t67.5 -22t53 -30.5t43 -33
q17 -13 23 -26.5t6 -42.5q0 -35 -20 -35q-8 0 -24.5 10t-40 21.5t-52 21.5t-60.5 10q-34 0 -76 -11t-83.5 -31.5t-78 -49.5t-58.5 -66q0 -23 14.5 -47.5t38.5 -48.5t54 -45.5t60.5 -38t58.5 -26t48 -9.5q12 0 28.5 4.5t36.5 12t42 17t43 19.5l199 83q20 9 28 3t8 -23z
M259 1447q17 25 35.5 40.5t38.5 15.5q12 0 29.5 -7t43.5 -28q26 -20 40.5 -39t14.5 -41q0 -12 -7 -29t-24 -41q-17 -26 -35.5 -42t-38.5 -16q-11 0 -28.5 6.5t-44.5 27.5q-25 20 -39 40.5t-14 39.5q0 14 6.5 31.5t22.5 41.5z" />
    <glyph glyph-name="uni063B.init" unicode="&#x63b;" horiz-adv-x="957" 
d="M130 1106q48 -35 99 -75t101.5 -84.5t98.5 -92.5t89 -97q21 -27 43.5 -60t40.5 -70t29.5 -75.5t11.5 -75.5q0 -43 -16 -87.5t-41 -85.5q-13 -20 -26.5 -33.5t-42.5 -27.5q-33 -16 -80 -30.5t-110 -26t-144 -18.5t-183 -7q-14 0 -29 4.5t-28.5 13t-22 21t-8.5 28.5v52
q0 14 9.5 24t24 16.5t33 9.5t36.5 3q217 0 352.5 28.5t189.5 79.5q-9 46 -40.5 95.5t-77 99t-101.5 98t-114 94.5l-10 -36q-10 -29 -36 -14q-38 20 -77 44.5t-62 51.5q-17 19 -24 48.5t-7 62.5q0 45 16 103t42 110q11 18 57.5 49t117 68t159.5 78t185 80l351 146q8 3 15 0
t7 -13q0 -11 -4 -27.5t-16 -44.5q-17 -41 -30.5 -62.5t-28.5 -26.5q-201 -84 -393 -168.5t-356 -169.5zM210 1587q14 17 27.5 28.5t29.5 11.5q8 0 21.5 -4.5t33.5 -20.5q42 -31 42 -58q0 -10 -4.5 -22.5t-18.5 -29.5q-14 -20 -27.5 -31t-29.5 -11q-9 0 -22 5t-34 21
q-19 15 -29.5 29t-10.5 28q0 11 5 24t17 30zM401 1667q13 19 26 30t30 11q9 0 22.5 -5t33.5 -19q41 -32 41 -59q0 -9 -4.5 -22t-17.5 -30q-16 -20 -28.5 -31t-29.5 -11q-8 0 -21.5 4.5t-33.5 20.5q-19 14 -30 28.5t-11 29.5q0 11 5 23.5t18 29.5z" />
    <glyph glyph-name="uni063B.medi" unicode="&#x63b;" horiz-adv-x="954" 
d="M954 160q-67 0 -117 13.5t-93 46t-84 86t-89 133.5h-3q-4 -35 -13.5 -67.5t-29.5 -67.5q-13 -22 -28 -36t-42 -27q-43 -20 -91 -35.5t-103.5 -25.5t-120 -15t-140.5 -5q-13 0 -28.5 4.5t-28.5 13t-22 21t-9 28.5v52q0 14 9.5 24t24.5 16.5t33.5 9.5t36.5 3
q87 0 162.5 7.5t136.5 21.5t106.5 33.5t72.5 43.5q-4 44 -24.5 88t-55.5 89t-83.5 92.5t-109.5 99.5q-49 40 -93.5 72.5t-89.5 62.5q-14 10 -21.5 22t-7.5 35q0 19 4.5 43t12.5 50t18 52.5t22 50.5q9 20 54.5 49.5t115 64.5t157.5 73.5t183 78.5t192 78.5t183 73.5
q9 4 15.5 0.5t6.5 -13.5q0 -11 -4 -27t-16 -45q-17 -41 -30.5 -63t-27.5 -28q-108 -44 -206.5 -84.5t-192.5 -81t-185.5 -83t-185.5 -90.5q82 -60 158 -121t146 -128t135 -142t127 -163q37 -54 69.5 -94t65 -66.5t67.5 -39t77 -12.5zM210 1587q14 17 27.5 28.5t29.5 11.5
q8 0 21.5 -4.5t33.5 -20.5q42 -31 42 -58q0 -10 -4.5 -22.5t-18.5 -29.5q-14 -20 -27.5 -31t-29.5 -11q-9 0 -22 5t-34 21q-19 15 -29.5 29t-10.5 28q0 11 5 24t17 30zM401 1667q13 19 26 30t30 11q9 0 22.5 -5t33.5 -19q41 -32 41 -59q0 -9 -4.5 -22t-17.5 -30
q-16 -20 -28.5 -31t-29.5 -11q-8 0 -21.5 4.5t-33.5 20.5q-19 14 -30 28.5t-11 29.5q0 11 5 23.5t18 29.5z" />
    <glyph glyph-name="uni063B.fina" unicode="&#x63b;" horiz-adv-x="1846" 
d="M1846 160q-51 0 -93 8t-78.5 27t-69.5 50.5t-65 78.5q-17 23 -36.5 51t-36.5 59h-4q-2 -23 -10 -51.5t-19 -55.5t-24 -47.5t-24 -26.5q-38 -24 -102.5 -50t-155 -47t-206 -34.5t-254.5 -13.5q-118 0 -207.5 14.5t-155 41.5t-109.5 64.5t-71 83.5t-38 99t-11 110
q0 32 5.5 65t14.5 65.5t21 63t25 57.5q7 13 12.5 21.5t12.5 13t16.5 6.5t23.5 2q21 0 30 -4.5t9 -15.5q0 -9 -8.5 -29.5t-19 -48.5t-19 -61t-8.5 -68q0 -59 24 -112.5t83.5 -94.5t159 -65t249.5 -24q116 0 220.5 9.5t192.5 27.5t156.5 43.5t112.5 57.5q-6 49 -30 98
t-61.5 97t-87 95t-105.5 93q-17 14 -39 30.5t-45 33.5t-46.5 33.5t-43.5 31.5q-14 10 -22 22t-8 35q0 19 4.5 42.5t12.5 49.5t18.5 53t21.5 51q9 19 52.5 47.5t110.5 62.5t153 72.5t181.5 78.5t195 80t193.5 77q8 4 14.5 0.5t6.5 -13.5q0 -11 -4 -27t-15 -45
q-18 -41 -31.5 -63t-27.5 -28q-100 -40 -197 -80t-192.5 -82t-190.5 -86t-191 -91q157 -111 293.5 -236t243.5 -278q41 -60 76.5 -106.5t71.5 -79t75 -49.5t86 -17zM1107 1588q14 17 27.5 28.5t29.5 11.5q8 0 21.5 -4.5t33.5 -20.5q42 -31 42 -58q0 -10 -4.5 -22.5
t-18.5 -29.5q-14 -20 -27.5 -31t-29.5 -11q-9 0 -22 5t-34 21q-19 15 -29.5 29t-10.5 28q0 11 5 24t17 30zM1298 1668q13 19 26 30t30 11q9 0 22.5 -5t33.5 -19q41 -32 41 -59q0 -9 -4.5 -22t-17.5 -30q-16 -20 -28.5 -31t-29.5 -11q-8 0 -21.5 4.5t-33.5 20.5
q-19 14 -30 28.5t-11 29.5q0 11 5 23.5t18 29.5z" />
    <glyph glyph-name="uni063C.init" unicode="&#x63c;" horiz-adv-x="957" 
d="M130 1106q48 -35 99 -75t101.5 -84.5t98.5 -92.5t89 -97q21 -27 43.5 -60t40.5 -70t29.5 -75.5t11.5 -75.5q0 -43 -16 -87.5t-41 -85.5q-13 -20 -26.5 -33.5t-42.5 -27.5q-33 -16 -80 -30.5t-110 -26t-144 -18.5t-183 -7q-14 0 -29 4.5t-28.5 13t-22 21t-8.5 28.5v52
q0 14 9.5 24t24 16.5t33 9.5t36.5 3q217 0 352.5 28.5t189.5 79.5q-9 46 -40.5 95.5t-77 99t-101.5 98t-114 94.5l-10 -36q-10 -29 -36 -14q-38 20 -77 44.5t-62 51.5q-17 19 -24 48.5t-7 62.5q0 45 16 103t42 110q11 18 57.5 49t117 68t159.5 78t185 80l351 146q8 3 15 0
t7 -13q0 -11 -4 -27.5t-16 -44.5q-17 -41 -30.5 -62.5t-28.5 -26.5q-201 -84 -393 -168.5t-356 -169.5zM259 -41q13 20 27 32t31 12q11 0 24.5 -5.5t35.5 -21.5q43 -32 43 -64q0 -22 -24 -56q-15 -21 -29 -33.5t-31 -12.5q-9 0 -23 5t-36 22q-20 16 -31.5 32t-11.5 31
q0 12 5.5 26t19.5 33zM459 -28q14 20 28.5 32.5t29.5 12.5q11 0 25 -5.5t36 -22.5q20 -16 31.5 -31.5t11.5 -32.5q0 -10 -5 -23.5t-20 -32.5q-14 -21 -28 -33.5t-31 -12.5q-10 0 -23.5 5t-35.5 23q-20 15 -31.5 31t-11.5 32q0 12 5 25t19 33zM381 -230q13 20 27 32t31 12
q11 0 24 -5t35 -22q21 -17 32.5 -32t11.5 -32q0 -10 -5.5 -23.5t-19.5 -32.5q-15 -20 -29 -33t-30 -13q-10 0 -23.5 5.5t-35.5 22.5q-20 16 -31.5 32t-11.5 31q0 12 5 25.5t20 32.5z" />
    <glyph glyph-name="uni063C.medi" unicode="&#x63c;" horiz-adv-x="954" 
d="M954 160q-67 0 -117 13.5t-93 46t-84 86t-89 133.5h-3q-4 -35 -13.5 -67.5t-29.5 -67.5q-13 -22 -28 -36t-42 -27q-43 -20 -91 -35.5t-103.5 -25.5t-120 -15t-140.5 -5q-13 0 -28.5 4.5t-28.5 13t-22 21t-9 28.5v52q0 14 9.5 24t24.5 16.5t33.5 9.5t36.5 3
q87 0 162.5 7.5t136.5 21.5t106.5 33.5t72.5 43.5q-4 44 -24.5 88t-55.5 89t-83.5 92.5t-109.5 99.5q-49 40 -93.5 72.5t-89.5 62.5q-14 10 -21.5 22t-7.5 35q0 19 4.5 43t12.5 50t18 52.5t22 50.5q9 20 54.5 49.5t115 64.5t157.5 73.5t183 78.5t192 78.5t183 73.5
q9 4 15.5 0.5t6.5 -13.5q0 -11 -4 -27t-16 -45q-17 -41 -30.5 -63t-27.5 -28q-108 -44 -206.5 -84.5t-192.5 -81t-185.5 -83t-185.5 -90.5q82 -60 158 -121t146 -128t135 -142t127 -163q37 -54 69.5 -94t65 -66.5t67.5 -39t77 -12.5zM320 -41q13 20 27 32t31 12
q11 0 24.5 -5.5t35.5 -21.5q43 -32 43 -64q0 -22 -24 -56q-15 -21 -29 -33.5t-31 -12.5q-9 0 -23 5t-36 22q-20 16 -31.5 32t-11.5 31q0 12 5.5 26t19.5 33zM520 -28q14 20 28.5 32.5t29.5 12.5q11 0 25 -5.5t36 -22.5q20 -16 31.5 -31.5t11.5 -32.5q0 -10 -5 -23.5
t-20 -32.5q-14 -21 -28 -33.5t-31 -12.5q-10 0 -23.5 5t-35.5 23q-20 15 -31.5 31t-11.5 32q0 12 5 25t19 33zM442 -230q13 20 27 32t31 12q11 0 24 -5t35 -22q21 -17 32.5 -32t11.5 -32q0 -10 -5.5 -23.5t-19.5 -32.5q-15 -20 -29 -33t-30 -13q-10 0 -23.5 5.5t-35.5 22.5
q-20 16 -31.5 32t-11.5 31q0 12 5 25.5t20 32.5z" />
    <glyph glyph-name="uni063C.fina" unicode="&#x63c;" horiz-adv-x="1846" 
d="M1846 160q-51 0 -93 8t-78.5 27t-69.5 50.5t-65 78.5q-17 23 -36.5 51t-36.5 59h-4q-2 -23 -10 -51.5t-19 -55.5t-24 -47.5t-24 -26.5q-38 -24 -102.5 -50t-155 -47t-206 -34.5t-254.5 -13.5q-118 0 -207.5 14.5t-155 41.5t-109.5 64.5t-71 83.5t-38 99t-11 110
q0 32 5.5 65t14.5 65.5t21 63t25 57.5q7 13 12.5 21.5t12.5 13t16.5 6.5t23.5 2q21 0 30 -4.5t9 -15.5q0 -9 -8.5 -29.5t-19 -48.5t-19 -61t-8.5 -68q0 -59 24 -112.5t83.5 -94.5t159 -65t249.5 -24q116 0 220.5 9.5t192.5 27.5t156.5 43.5t112.5 57.5q-6 49 -30 98
t-61.5 97t-87 95t-105.5 93q-17 14 -39 30.5t-45 33.5t-46.5 33.5t-43.5 31.5q-14 10 -22 22t-8 35q0 19 4.5 42.5t12.5 49.5t18.5 53t21.5 51q9 19 52.5 47.5t110.5 62.5t153 72.5t181.5 78.5t195 80t193.5 77q8 4 14.5 0.5t6.5 -13.5q0 -11 -4 -27t-15 -45
q-18 -41 -31.5 -63t-27.5 -28q-100 -40 -197 -80t-192.5 -82t-190.5 -86t-191 -91q157 -111 293.5 -236t243.5 -278q41 -60 76.5 -106.5t71.5 -79t75 -49.5t86 -17zM690 -95q13 20 27 32t31 12q11 0 24.5 -5.5t35.5 -21.5q43 -32 43 -64q0 -22 -24 -56q-15 -21 -29 -33.5
t-31 -12.5q-9 0 -23 5t-36 22q-20 16 -31.5 32t-11.5 31q0 12 5.5 26t19.5 33zM890 -82q14 20 28.5 32.5t29.5 12.5q11 0 25 -5.5t36 -22.5q20 -16 31.5 -31.5t11.5 -32.5q0 -10 -5 -23.5t-20 -32.5q-14 -21 -28 -33.5t-31 -12.5q-10 0 -23.5 5t-35.5 23q-20 15 -31.5 31
t-11.5 32q0 12 5 25t19 33zM812 -284q13 20 27 32t31 12q11 0 24 -5t35 -22q21 -17 32.5 -32t11.5 -32q0 -10 -5.5 -23.5t-19.5 -32.5q-15 -20 -29 -33t-30 -13q-10 0 -23.5 5.5t-35.5 22.5q-20 16 -31.5 32t-11.5 31q0 12 5 25.5t20 32.5z" />
    <glyph glyph-name="uni063D.init" unicode="&#x63d;" horiz-adv-x="502" 
d="M0 160q-13 0 -28.5 4.5t-28.5 13t-22 21t-9 28.5v52q0 14 9.5 24t24.5 16.5t33.5 9.5t36.5 3q43 0 86 4.5t83 13.5t75 22t62 29q-7 57 -28.5 122.5t-69.5 140.5q-8 11 -12.5 20t-4.5 22q0 17 8.5 40.5t20.5 45t25 36.5t22 15q8 0 15 -6t20 -26q19 -28 38 -66.5
t34.5 -83.5t25.5 -95t10 -101q0 -44 -9.5 -89t-23.5 -83q-7 -20 -16.5 -32t-28.5 -23q-62 -33 -152.5 -55.5t-195.5 -22.5zM112 965q-9 -17 -24 -21t-49 -4q-22 0 -26 10.5t11 36.5l108 190q10 19 26.5 26t51.5 7q19 0 32 -2t22 -6t15 -10.5t11 -16.5l110 -188
q14 -25 5.5 -36t-43.5 -11q-17 0 -28 1t-18.5 3.5t-12.5 7.5t-10 13l-91 163zM0 -93q15 22 31 36t33 14q12 0 27 -6.5t38 -24.5q48 -37 48 -72q0 -11 -6 -27t-20 -37q-17 -23 -32.5 -37.5t-33.5 -14.5q-11 0 -26 5.5t-38 25.5q-22 17 -34.5 36t-12.5 36q0 14 6 29t20 37z
M220 -78q14 22 30 36t34 14q11 0 26 -6t39 -25q48 -37 48 -72q0 -11 -6 -27t-20 -37q-17 -24 -33 -37.5t-33 -13.5q-11 0 -26 6t-39 25q-21 18 -34 36t-13 35q0 13 5.5 28t21.5 38z" />
    <glyph glyph-name="uni063D.medi" unicode="&#x63d;" horiz-adv-x="593" 
d="M593 160q-96 0 -164.5 40t-98.5 137h-5q-15 -28 -38.5 -58t-44.5 -47q-23 -17 -51.5 -30.5t-60.5 -22.5t-65.5 -14t-64.5 -5q-13 0 -28.5 4.5t-28.5 13t-22 21t-9 28.5v52q0 14 9.5 24t24.5 16.5t33.5 9.5t36.5 3q25 0 52 4.5t52 12t46 18t36 23.5q18 14 34 41.5t29.5 62
t24.5 74t20 78.5q2 9 5 14.5t11 9.5t23.5 5.5t42.5 1.5q24 0 24 -20q0 -9 -3.5 -27.5t-8 -41.5t-10 -47t-9.5 -44q9 -85 67 -125t157 -40zM153 847q-9 -17 -24 -21t-49 -4q-22 0 -26 10.5t11 36.5l108 190q10 19 26.5 26t51.5 7q19 0 32 -2t22 -6t15 -10.5t11 -16.5
l110 -188q14 -25 5.5 -36t-43.5 -11q-17 0 -28 1t-18.5 3.5t-12.5 7.5t-10 13l-91 163zM8 -58q15 22 31 36t33 14q12 0 27 -6.5t38 -24.5q48 -37 48 -72q0 -11 -6 -27t-20 -37q-17 -23 -32.5 -37.5t-33.5 -14.5q-11 0 -26 5.5t-38 25.5q-22 17 -34.5 36t-12.5 36q0 14 6 29
t20 37zM228 -43q14 22 30 36t34 14q11 0 26 -6t39 -25q48 -37 48 -72q0 -11 -6 -27t-20 -37q-17 -24 -33 -37.5t-33 -13.5q-11 0 -26 6t-39 25q-21 18 -34 36t-13 35q0 13 5.5 28t21.5 38z" />
    <glyph glyph-name="uni063D.fina" unicode="&#x63d;" horiz-adv-x="1175" 
d="M1175 160q-40 -3 -76 -7t-63.5 -8.5t-44 -9t-16.5 -9.5q0 -3 21 -7t52 -10t68 -13.5t68 -17.5t52 -23t21 -29q0 -18 -5.5 -37.5t-14.5 -38t-20.5 -35.5t-23.5 -30q-41 -41 -108.5 -79t-152.5 -67.5t-182.5 -47.5t-199.5 -18q-129 0 -219.5 32t-147 86t-82 124t-25.5 147
q0 43 9.5 92t24 96t32 89.5t33.5 74.5q12 20 22.5 29.5t40.5 9.5q22 0 30.5 -4.5t8.5 -15.5t-12 -38.5t-26 -65t-26 -81.5t-12 -88q0 -75 28 -132t79 -95t121.5 -57.5t156.5 -19.5q46 0 98.5 4.5t105.5 13t104.5 19.5t95.5 24.5t79 28.5t55 31q-6 8 -31.5 16t-60.5 15
t-74 14.5t-73.5 15.5t-59.5 16.5t-30 19.5q-11 12 -19 27.5t-8 34.5t11 41.5t37 45t68.5 44t104.5 38.5q35 10 89 18.5t114 8.5zM183 603q-9 -17 -24 -21t-49 -4q-22 0 -26 10.5t11 36.5l108 190q10 19 26.5 26t51.5 7q19 0 32 -2t22 -6t15 -10.5t11 -16.5l110 -188
q14 -25 5.5 -36t-43.5 -11q-17 0 -28 1t-18.5 3.5t-12.5 7.5t-10 13l-91 163z" />
    </font>
</defs>
</svg>
